  0
SECTION
  2
HEADER
  9
$ACADVER
  1
AC1018
  9
$ACADMAINTVER
 70
     0
  9
$DWGCODEPAGE
  3
ANSI_1252
  9
$INSBASE
 10
0.0
 20
0.0
 30
0.0
  9
$EXTMIN
 10
-413.2500170187277
 20
-270.9691690506394
 30
0.0
  9
$EXTMAX
 10
-116.2500170187296
 20
-60.96916905063929
 30
0.0
  9
$LIMMIN
 10
0.0
 20
0.0
  9
$LIMMAX
 10
12.0
 20
9.0
  9
$ORTHOMODE
 70
     0
  9
$REGENMODE
 70
     1
  9
$FILLMODE
 70
     1
  9
$QTEXTMODE
 70
     0
  9
$MIRRTEXT
 70
     1
  9
$LTSCALE
 40
1.0
  9
$ATTMODE
 70
     1
  9
$TEXTSIZE
 40
0.2
  9
$TRACEWID
 40
0.05
  9
$TEXTSTYLE
  7
Standard
  9
$CLAYER
  8
0
  9
$CELTYPE
  6
ByLayer
  9
$CECOLOR
 62
   256
  9
$CELTSCALE
 40
1.0
  9
$DISPSILH
 70
     0
  9
$DIMSCALE
 40
1.0
  9
$DIMASZ
 40
0.18
  9
$DIMEXO
 40
0.0625
  9
$DIMDLI
 40
0.38
  9
$DIMRND
 40
0.0
  9
$DIMDLE
 40
0.0
  9
$DIMEXE
 40
0.18
  9
$DIMTP
 40
0.0
  9
$DIMTM
 40
0.0
  9
$DIMTXT
 40
0.18
  9
$DIMCEN
 40
0.09
  9
$DIMTSZ
 40
0.0
  9
$DIMTOL
 70
     0
  9
$DIMLIM
 70
     0
  9
$DIMTIH
 70
     1
  9
$DIMTOH
 70
     1
  9
$DIMSE1
 70
     0
  9
$DIMSE2
 70
     0
  9
$DIMTAD
 70
     0
  9
$DIMZIN
 70
     0
  9
$DIMBLK
  1

  9
$DIMASO
 70
     1
  9
$DIMSHO
 70
     1
  9
$DIMPOST
  1

  9
$DIMAPOST
  1

  9
$DIMALT
 70
     0
  9
$DIMALTD
 70
     2
  9
$DIMALTF
 40
25.4
  9
$DIMLFAC
 40
1.0
  9
$DIMTOFL
 70
     0
  9
$DIMTVP
 40
0.0
  9
$DIMTIX
 70
     0
  9
$DIMSOXD
 70
     0
  9
$DIMSAH
 70
     0
  9
$DIMBLK1
  1

  9
$DIMBLK2
  1

  9
$DIMSTYLE
  2
Standard
  9
$DIMCLRD
 70
     0
  9
$DIMCLRE
 70
     0
  9
$DIMCLRT
 70
     0
  9
$DIMTFAC
 40
1.0
  9
$DIMGAP
 40
0.09
  9
$DIMJUST
 70
     0
  9
$DIMSD1
 70
     0
  9
$DIMSD2
 70
     0
  9
$DIMTOLJ
 70
     1
  9
$DIMTZIN
 70
     0
  9
$DIMALTZ
 70
     0
  9
$DIMALTTZ
 70
     0
  9
$DIMUPT
 70
     0
  9
$DIMDEC
 70
     4
  9
$DIMTDEC
 70
     4
  9
$DIMALTU
 70
     2
  9
$DIMALTTD
 70
     2
  9
$DIMTXSTY
  7
Standard
  9
$DIMAUNIT
 70
     0
  9
$DIMADEC
 70
     0
  9
$DIMALTRND
 40
0.0
  9
$DIMAZIN
 70
     0
  9
$DIMDSEP
 70
    46
  9
$DIMATFIT
 70
     3
  9
$DIMFRAC
 70
     0
  9
$DIMLDRBLK
  1

  9
$DIMLUNIT
 70
     2
  9
$DIMLWD
 70
    -2
  9
$DIMLWE
 70
    -2
  9
$DIMTMOVE
 70
     0
  9
$LUNITS
 70
     2
  9
$LUPREC
 70
     4
  9
$SKETCHINC
 40
0.1
  9
$FILLETRAD
 40
0.5
  9
$AUNITS
 70
     0
  9
$AUPREC
 70
     0
  9
$MENU
  1
.
  9
$ELEVATION
 40
0.0
  9
$PELEVATION
 40
0.0
  9
$THICKNESS
 40
0.0
  9
$LIMCHECK
 70
     0
  9
$CHAMFERA
 40
0.5
  9
$CHAMFERB
 40
0.5
  9
$CHAMFERC
 40
1.0
  9
$CHAMFERD
 40
0.0
  9
$SKPOLY
 70
     0
  9
$TDCREATE
 40
2458206.620931366
  9
$TDUCREATE
 40
2458206.537598033
  9
$TDUPDATE
 40
2458206.620931725
  9
$TDUUPDATE
 40
2458206.537598391
  9
$TDINDWG
 40
0.0000000116
  9
$TDUSRTIMER
 40
0.0000000116
  9
$USRTIMER
 70
     1
  9
$ANGBASE
 50
0.0
  9
$ANGDIR
 70
     0
  9
$PDMODE
 70
     0
  9
$PDSIZE
 40
0.0
  9
$PLINEWID
 40
0.0
  9
$SPLFRAME
 70
     0
  9
$SPLINETYPE
 70
     6
  9
$SPLINESEGS
 70
     8
  9
$HANDSEED
  5
266
  9
$SURFTAB1
 70
     6
  9
$SURFTAB2
 70
     6
  9
$SURFTYPE
 70
     6
  9
$SURFU
 70
     6
  9
$SURFV
 70
     6
  9
$UCSBASE
  2

  9
$UCSNAME
  2

  9
$UCSORG
 10
0.0
 20
0.0
 30
0.0
  9
$UCSXDIR
 10
1.0
 20
0.0
 30
0.0
  9
$UCSYDIR
 10
0.0
 20
1.0
 30
0.0
  9
$UCSORTHOREF
  2

  9
$UCSORTHOVIEW
 70
     0
  9
$UCSORGTOP
 10
0.0
 20
0.0
 30
0.0
  9
$UCSORGBOTTOM
 10
0.0
 20
0.0
 30
0.0
  9
$UCSORGLEFT
 10
0.0
 20
0.0
 30
0.0
  9
$UCSORGRIGHT
 10
0.0
 20
0.0
 30
0.0
  9
$UCSORGFRONT
 10
0.0
 20
0.0
 30
0.0
  9
$UCSORGBACK
 10
0.0
 20
0.0
 30
0.0
  9
$PUCSBASE
  2

  9
$PUCSNAME
  2

  9
$PUCSORG
 10
0.0
 20
0.0
 30
0.0
  9
$PUCSXDIR
 10
1.0
 20
0.0
 30
0.0
  9
$PUCSYDIR
 10
0.0
 20
1.0
 30
0.0
  9
$PUCSORTHOREF
  2

  9
$PUCSORTHOVIEW
 70
     0
  9
$PUCSORGTOP
 10
0.0
 20
0.0
 30
0.0
  9
$PUCSORGBOTTOM
 10
0.0
 20
0.0
 30
0.0
  9
$PUCSORGLEFT
 10
0.0
 20
0.0
 30
0.0
  9
$PUCSORGRIGHT
 10
0.0
 20
0.0
 30
0.0
  9
$PUCSORGFRONT
 10
0.0
 20
0.0
 30
0.0
  9
$PUCSORGBACK
 10
0.0
 20
0.0
 30
0.0
  9
$USERI1
 70
     0
  9
$USERI2
 70
     0
  9
$USERI3
 70
     0
  9
$USERI4
 70
     0
  9
$USERI5
 70
     0
  9
$USERR1
 40
18.1
  9
$USERR2
 40
0.0
  9
$USERR3
 40
0.0
  9
$USERR4
 40
0.0
  9
$USERR5
 40
0.0
  9
$WORLDVIEW
 70
     1
  9
$SHADEDGE
 70
     3
  9
$SHADEDIF
 70
    70
  9
$TILEMODE
 70
     1
  9
$MAXACTVP
 70
    64
  9
$PINSBASE
 10
0.0
 20
0.0
 30
0.0
  9
$PLIMCHECK
 70
     0
  9
$PEXTMIN
 10
1.00000000000000E+20
 20
1.00000000000000E+20
 30
1.00000000000000E+20
  9
$PEXTMAX
 10
-1.00000000000000E+20
 20
-1.00000000000000E+20
 30
-1.00000000000000E+20
  9
$PLIMMIN
 10
0.0
 20
0.0
  9
$PLIMMAX
 10
12.0
 20
9.0
  9
$UNITMODE
 70
     0
  9
$VISRETAIN
 70
     1
  9
$PLINEGEN
 70
     0
  9
$PSLTSCALE
 70
     1
  9
$TREEDEPTH
 70
  3020
  9
$CMLSTYLE
  2
Standard
  9
$CMLJUST
 70
     0
  9
$CMLSCALE
 40
1.0
  9
$PROXYGRAPHICS
 70
     1
  9
$MEASUREMENT
 70
     1
  9
$CELWEIGHT
370
    -1
  9
$ENDCAPS
280
     0
  9
$JOINSTYLE
280
     0
  9
$LWDISPLAY
290
     0
  9
$INSUNITS
 70
     4
  9
$HYPERLINKBASE
  1

  9
$STYLESHEET
  1

  9
$XEDIT
290
     1
  9
$CEPSNTYPE
380
     0
  9
$PSTYLEMODE
290
     1
  9
$FINGERPRINTGUID
  2
{114E6B12-ACCD-4CA4-85E1-2FE77513274A}
  9
$VERSIONGUID
  2
{FAEB1C32-E019-11D5-929B-00C0DF256EC4}
  9
$EXTNAMES
290
     1
  9
$PSVPSCALE
 40
0.0
  9
$OLESTARTUP
290
     0
  9
$SORTENTS
280
   127
  9
$INDEXCTL
280
     0
  9
$HIDETEXT
280
     1
  9
$XCLIPFRAME
290
     0
  9
$HALOGAP
280
     0
  9
$OBSCOLOR
 70
   257
  9
$OBSLTYPE
280
     0
  9
$INTERSECTIONDISPLAY
280
     0
  9
$INTERSECTIONCOLOR
 70
   257
  9
$DIMASSOC
280
     2
  9
$PROJECTNAME
  1

  0
ENDSEC
  0
SECTION
  2
CLASSES
  0
CLASS
  1
ACDBDICTIONARYWDFLT
  2
AcDbDictionaryWithDefault
  3
ObjectDBX Classes
 90
        0
 91
        4
280
     0
281
     0
  0
CLASS
  1
VISUALSTYLE
  2
AcDbVisualStyle
  3
ObjectDBX Classes
 90
     4095
 91
        4
280
     0
281
     0
  0
CLASS
  1
MATERIAL
  2
AcDbMaterial
  3
ObjectDBX Classes
 90
     1153
 91
        4
280
     0
281
     0
  0
ENDSEC
  0
SECTION
  2
TABLES
  0
TABLE
  2
VPORT
  5
8
330
0
100
AcDbSymbolTable
 70
     1
  0
VPORT
  5
29
330
8
100
AcDbSymbolTableRecord
100
AcDbViewportTableRecord
  2
*Active
 70
     0
 10
0.0
 20
0.0
 11
1.0
 21
1.0
 12
-264.7500170187287
 22
-165.9691690506393
 13
0.0
 23
0.0
 14
0.5
 24
0.5
 15
0.5
 25
0.5
 16
0.0
 26
0.0
 36
1.0
 17
0.0
 27
0.0
 37
0.0
 40
231.0000000000001
 41
1.60267857142857
 42
50.0
 43
0.0
 44
0.0
 50
0.0
 51
0.0
 71
     0
 72
   100
 73
     1
 74
     3
 75
     0
 76
     0
 77
     0
 78
     0
281
     0
 65
     1
110
0.0
120
0.0
130
0.0
111
1.0
121
0.0
131
0.0
112
0.0
122
1.0
132
0.0
 79
     0
146
0.0
  0
ENDTAB
  0
TABLE
  2
LTYPE
  5
5
330
0
100
AcDbSymbolTable
 70
     8
  0
LTYPE
  5
14
330
5
100
AcDbSymbolTableRecord
100
AcDbLinetypeTableRecord
  2
ByBlock
 70
     0
  3

 72
    65
 73
     0
 40
0.0
  0
LTYPE
  5
15
330
5
100
AcDbSymbolTableRecord
100
AcDbLinetypeTableRecord
  2
ByLayer
 70
     0
  3

 72
    65
 73
     0
 40
0.0
  0
LTYPE
  5
16
330
5
100
AcDbSymbolTableRecord
100
AcDbLinetypeTableRecord
  2
Continuous
 70
     0
  3
Solid line
 72
    65
 73
     0
 40
0.0
  0
LTYPE
  5
3F
330
5
100
AcDbSymbolTableRecord
100
AcDbLinetypeTableRecord
  2
DASHED
 70
     0
  3
Dashed
 72
    65
 73
     2
 40
15.0
 49
7.0
 74
     0
 49
-8.0
 74
     0
  0
LTYPE
  5
40
330
5
100
AcDbSymbolTableRecord
100
AcDbLinetypeTableRecord
  2
DOTTED
 70
     0
  3
Dotted
 72
    65
 73
     2
 40
1.0
 49
0.0
 74
     0
 49
-1.0
 74
     0
  0
LTYPE
  5
41
330
5
100
AcDbSymbolTableRecord
100
AcDbLinetypeTableRecord
  2
DOT_CENTER
 70
     0
  3
Dot_Center
 72
    65
 73
     4
 40
14.0
 49
12.0
 74
     0
 49
-1.0
 74
     0
 49
0.0
 74
     0
 49
-1.0
 74
     0
  0
LTYPE
  5
42
330
5
100
AcDbSymbolTableRecord
100
AcDbLinetypeTableRecord
  2
LONG_DASHED
 70
     0
  3
Long_Dashed
 72
    65
 73
     2
 40
15.0
 49
10.0
 74
     0
 49
-5.0
 74
     0
  0
LTYPE
  5
43
330
5
100
AcDbSymbolTableRecord
100
AcDbLinetypeTableRecord
  2
DASH_CENTER
 70
     0
  3
Dash_Center
 72
    65
 73
     4
 40
14.0
 49
11.0
 74
     0
 49
-1.0
 74
     0
 49
1.0
 74
     0
 49
-1.0
 74
     0
  0
LTYPE
  5
44
330
5
100
AcDbSymbolTableRecord
100
AcDbLinetypeTableRecord
  2
PHANTOM
 70
     0
  3
Phantom
 72
    65
 73
     6
 40
13.0
 49
10.0
 74
     0
 49
-1.0
 74
     0
 49
0.0
 74
     0
 49
-1.0
 74
     0
 49
0.0
 74
     0
 49
-1.0
 74
     0
  0
LTYPE
  5
45
330
5
100
AcDbSymbolTableRecord
100
AcDbLinetypeTableRecord
  2
CENTER_DASH_DASH
 70
     0
  3
Center_Dash_Dash
 72
    65
 73
     6
 40
14.0
 49
9.0
 74
     0
 49
-1.0
 74
     0
 49
1.0
 74
     0
 49
-1.0
 74
     0
 49
1.0
 74
     0
 49
-1.0
 74
     0
  0
ENDTAB
  0
TABLE
  2
LAYER
  5
2
330
0
100
AcDbSymbolTable
 70
     2
  0
LAYER
  5
10
330
2
100
AcDbSymbolTableRecord
100
AcDbLayerTableRecord
  2
0
 70
     0
 62
     7
  6
Continuous
370
    -3
390
F
  0
LAYER
  5
46
330
2
100
AcDbSymbolTableRecord
100
AcDbLayerTableRecord
  2
1
 70
     0
 62
     7
  6
Continuous
370
    -3
390
F
  0
ENDTAB
  0
TABLE
  2
STYLE
  5
3
330
0
100
AcDbSymbolTable
 70
     5
  0
STYLE
  5
11
330
3
100
AcDbSymbolTableRecord
100
AcDbTextStyleTableRecord
  2
Standard
 70
     0
 40
0.0
 41
1.0
 50
0.0
 71
     0
 42
0.2
  3
txt
  4

  0
STYLE
  5
A5
330
3
100
AcDbSymbolTableRecord
100
AcDbTextStyleTableRecord
  2
CONVERTER_11
 70
     0
 40
0.0
 41
0.9
 50
0.0
 71
     0
 42
0.2
  3
txt.shx
  4

  0
STYLE
  5
201
330
3
100
AcDbSymbolTableRecord
100
AcDbTextStyleTableRecord
  2
CONVERTER_12
 70
     0
 40
0.0
 41
0.81
 50
0.0
 71
     0
 42
0.2
  3
txt.shx
  4

  0
STYLE
  5
217
330
3
100
AcDbSymbolTableRecord
100
AcDbTextStyleTableRecord
  2
CONVERTER_13
 70
     0
 40
0.0
 41
0.72
 50
0.0
 71
     0
 42
0.2
  3
txt.shx
  4

  0
STYLE
  5
21A
330
3
100
AcDbSymbolTableRecord
100
AcDbTextStyleTableRecord
  2
CONVERTER_14
 70
     0
 40
0.0
 41
0.855
 50
0.0
 71
     0
 42
0.2
  3
txt.shx
  4

  0
ENDTAB
  0
TABLE
  2
VIEW
  5
6
330
0
100
AcDbSymbolTable
 70
     0
  0
ENDTAB
  0
TABLE
  2
UCS
  5
7
330
0
100
AcDbSymbolTable
 70
     0
  0
ENDTAB
  0
TABLE
  2
APPID
  5
9
330
0
100
AcDbSymbolTable
 70
     1
  0
APPID
  5
12
330
9
100
AcDbSymbolTableRecord
100
AcDbRegAppTableRecord
  2
ACAD
 70
     0
  0
ENDTAB
  0
TABLE
  2
DIMSTYLE
  5
A
330
0
100
AcDbSymbolTable
 70
     4
100
AcDbDimStyleTable
  0
DIMSTYLE
105
27
330
A
100
AcDbSymbolTableRecord
100
AcDbDimStyleTableRecord
  2
Standard
 70
     0
178
     0
340
11
  0
DIMSTYLE
105
B5
102
{ACAD_REACTORS
330
B6
102
}
330
A
100
AcDbSymbolTableRecord
100
AcDbDimStyleTableRecord
  2
ME10_DIM_10
 70
     0
 41
0.7
 42
0.0
 44
0.3
 73
     0
 74
     0
 77
     1
 78
     8
140
0.7
147
0.3
172
     1
173
     1
174
     1
175
     1
176
     2
177
     2
178
     3
340
A5
  0
DIMSTYLE
105
F8
102
{ACAD_REACTORS
330
F9
102
}
330
A
100
AcDbSymbolTableRecord
100
AcDbDimStyleTableRecord
  2
ME10_DIM_11
 70
     0
 41
0.7
 42
0.0
 44
0.3
 73
     0
 74
     0
 77
     1
 78
     8
140
0.7
147
0.3
172
     1
173
     1
174
     1
175
     1
176
     2
177
     2
178
     3
340
A5
  0
DIMSTYLE
105
103
102
{ACAD_REACTORS
330
104
102
}
330
A
100
AcDbSymbolTableRecord
100
AcDbDimStyleTableRecord
  2
ME10_DIM_12
 70
     0
 41
0.7
 42
0.0
 44
0.3
 73
     0
 74
     0
 77
     1
 78
     8
140
0.7
147
0.3
172
     1
173
     1
174
     1
175
     1
176
     2
177
     2
271
     1
178
     3
271
     1
340
A5
  0
ENDTAB
  0
TABLE
  2
BLOCK_RECORD
  5
1
330
0
100
AcDbSymbolTable
 70
    20
  0
BLOCK_RECORD
  5
1F
330
1
100
AcDbSymbolTableRecord
100
AcDbBlockTableRecord
  2
*Model_Space
340
22
  0
BLOCK_RECORD
  5
1B
330
1
100
AcDbSymbolTableRecord
100
AcDbBlockTableRecord
  2
*Paper_Space
340
1E
  0
BLOCK_RECORD
  5
23
330
1
100
AcDbSymbolTableRecord
100
AcDbBlockTableRecord
  2
*Paper_Space0
340
26
  0
BLOCK_RECORD
  5
47
330
1
100
AcDbSymbolTableRecord
100
AcDbBlockTableRecord
  2
1051003_ZB_6_UNBEDRUCKT-select__1
340
0
102
{BLKREFS
331
4B
102
}
  0
BLOCK_RECORD
  5
4A
330
1
100
AcDbSymbolTableRecord
100
AcDbBlockTableRecord
  2
Allg1
340
0
102
{BLKREFS
331
7D
102
}
  0
BLOCK_RECORD
  5
4E
330
1
100
AcDbSymbolTableRecord
100
AcDbBlockTableRecord
  2
1051003_ZB_6_UNBEDRUCKT-select__2
340
0
102
{BLKREFS
331
52
102
}
  0
BLOCK_RECORD
  5
51
330
1
100
AcDbSymbolTableRecord
100
AcDbBlockTableRecord
  2
Drfsicht1
340
0
102
{BLKREFS
331
7E
102
}
  0
BLOCK_RECORD
  5
55
330
1
100
AcDbSymbolTableRecord
100
AcDbBlockTableRecord
  2
1051003_ZB_6_UNBEDRUCKT-select__3
340
0
102
{BLKREFS
331
59
102
}
  0
BLOCK_RECORD
  5
58
330
1
100
AcDbSymbolTableRecord
100
AcDbBlockTableRecord
  2
Rckans1
340
0
102
{BLKREFS
331
7F
102
}
  0
BLOCK_RECORD
  5
5C
330
1
100
AcDbSymbolTableRecord
100
AcDbBlockTableRecord
  2
1051003_ZB_6_UNBEDRUCKT-select__4
340
0
102
{BLKREFS
331
60
102
}
  0
BLOCK_RECORD
  5
5F
330
1
100
AcDbSymbolTableRecord
100
AcDbBlockTableRecord
  2
SA_Links1
340
0
102
{BLKREFS
331
80
102
}
  0
BLOCK_RECORD
  5
63
330
1
100
AcDbSymbolTableRecord
100
AcDbBlockTableRecord
  2
1051003_ZB_6_UNBEDRUCKT-select__5
340
0
102
{BLKREFS
331
67
102
}
  0
BLOCK_RECORD
  5
66
330
1
100
AcDbSymbolTableRecord
100
AcDbBlockTableRecord
  2
SA_Rechts1
340
0
102
{BLKREFS
331
81
102
}
  0
BLOCK_RECORD
  5
6A
330
1
100
AcDbSymbolTableRecord
100
AcDbBlockTableRecord
  2
1051003_ZB_6_UNBEDRUCKT-select__6
340
0
102
{BLKREFS
331
6E
102
}
  0
BLOCK_RECORD
  5
6D
330
1
100
AcDbSymbolTableRecord
100
AcDbBlockTableRecord
  2
Vordans1
340
0
102
{BLKREFS
331
82
102
}
  0
BLOCK_RECORD
  5
71
330
1
100
AcDbSymbolTableRecord
100
AcDbBlockTableRecord
  2
_rahmen
340
0
102
{BLKREFS
331
78
102
}
  0
BLOCK_RECORD
  5
74
330
1
100
AcDbSymbolTableRecord
100
AcDbBlockTableRecord
  2
_punkt
340
0
102
{BLKREFS
331
79
102
}
  0
BLOCK_RECORD
  5
77
330
1
100
AcDbSymbolTableRecord
100
AcDbBlockTableRecord
  2
A4I_CS
340
0
102
{BLKREFS
331
83
102
}
  0
BLOCK_RECORD
  5
7C
330
1
100
AcDbSymbolTableRecord
100
AcDbBlockTableRecord
  2
1
340
0
102
{BLKREFS
331
86
102
}
  0
BLOCK_RECORD
  5
AC
330
1
100
AcDbSymbolTableRecord
100
AcDbBlockTableRecord
  2
*D17
340
0
  0
BLOCK_RECORD
  5
EF
330
1
100
AcDbSymbolTableRecord
100
AcDbBlockTableRecord
  2
*D18
340
0
  0
BLOCK_RECORD
  5
FA
330
1
100
AcDbSymbolTableRecord
100
AcDbBlockTableRecord
  2
*D19
340
0
  0
ENDTAB
  0
ENDSEC
  0
SECTION
  2
BLOCKS
  0
BLOCK
  5
20
330
1F
100
AcDbEntity
  8
0
100
AcDbBlockBegin
  2
*Model_Space
 70
     0
 10
0.0
 20
0.0
 30
0.0
  3
*Model_Space
  1

  0
ENDBLK
  5
21
330
1F
100
AcDbEntity
  8
0
100
AcDbBlockEnd
  0
BLOCK
  5
1C
330
1B
100
AcDbEntity
 67
     1
  8
0
100
AcDbBlockBegin
  2
*Paper_Space
 70
     0
 10
0.0
 20
0.0
 30
0.0
  3
*Paper_Space
  1

  0
ENDBLK
  5
1D
330
1B
100
AcDbEntity
 67
     1
  8
0
100
AcDbBlockEnd
  0
BLOCK
  5
24
330
23
100
AcDbEntity
  8
0
100
AcDbBlockBegin
  2
*Paper_Space0
 70
     0
 10
0.0
 20
0.0
 30
0.0
  3
*Paper_Space0
  1

  0
ENDBLK
  5
25
330
23
100
AcDbEntity
  8
0
100
AcDbBlockEnd
  0
BLOCK
  5
48
330
47
100
AcDbEntity
  8
0
100
AcDbBlockBegin
  2
1051003_ZB_6_UNBEDRUCKT-select__1
 70
     0
 10
-39.88412074486248
 20
-44.27870552369237
 30
0.0
  3
1051003_ZB_6_UNBEDRUCKT-select__1
  1

  0
LINE
  5
87
330
47
100
AcDbEntity
  8
0
  6
Continuous
 62
     7
100
AcDbLine
 10
-30.79085400512508
 20
-41.22536352891338
 30
0.0
 11
-39.88412074486248
 21
-38.60036352891315
 31
0.0
  0
LINE
  5
88
330
47
100
AcDbEntity
  8
0
  6
Continuous
 62
     7
100
AcDbLine
 10
-27.71585400512509
 20
-39.51496335643913
 30
0.0
 11
-27.71585400512509
 21
-38.56233541227623
 31
0.0
  0
LINE
  5
89
330
47
100
AcDbEntity
  8
0
  6
Continuous
 62
     7
100
AcDbLine
 10
-39.88412074486248
 20
-39.55299147307596
 30
0.0
 11
-37.01701800737187
 21
-40.38065274171822
 31
0.0
  0
LINE
  5
8A
330
47
100
AcDbEntity
  8
0
  6
Continuous
 62
     7
100
AcDbLine
 10
-33.56620206966664
 20
-44.06149624872923
 30
0.0
 11
-32.8909656093027
 21
-44.25642022480811
 31
0.0
  0
LINE
  5
8B
330
47
100
AcDbEntity
  8
0
  6
Continuous
 62
     7
100
AcDbLine
 10
-33.65795674261668
 20
-41.35033020443379
 30
0.0
 11
-33.17065004671656
 21
-43.30965687840915
 31
0.0
  0
LINE
  5
8C
330
47
100
AcDbEntity
  8
0
  6
Continuous
 62
     7
100
AcDbLine
 10
-27.71585400512509
 20
-38.56233541227623
 30
0.0
 11
-36.80912074486169
 21
-35.93733541227623
 31
0.0
  0
LINE
  5
8D
330
47
100
AcDbEntity
  8
0
  6
Continuous
 62
     7
100
AcDbLine
 10
-39.88412074486248
 20
-38.60036352891315
 30
0.0
 11
-36.80912074486169
 21
-35.93733541227623
 31
0.0
  0
LINE
  5
8E
330
47
100
AcDbEntity
  8
0
  6
Continuous
 62
     7
100
AcDbLine
 10
-39.88412074486248
 20
-39.55299147307596
 30
0.0
 11
-39.88412074486248
 21
-38.60036352891315
 31
0.0
  0
LINE
  5
8F
330
47
100
AcDbEntity
  8
0
  6
Continuous
 62
     7
100
AcDbLine
 10
-29.48863877394881
 20
-41.53834387928797
 30
0.0
 11
-32.56363877394882
 21
-44.20137199592512
 31
0.0
  0
LINE
  5
90
330
47
100
AcDbEntity
  8
0
  6
Continuous
 62
     2
100
AcDbLine
 10
-31.31596560930254
 20
-42.02640481006305
 30
0.0
 11
-32.89096560930269
 21
-43.39039482102347
 31
0.0
  0
LINE
  5
91
330
47
100
AcDbEntity
  8
0
  6
Continuous
 62
     7
100
AcDbLine
 10
-33.17065004671656
 20
-43.30965687840915
 30
0.0
 11
-31.59565004671626
 21
-41.94566686744857
 31
0.0
  0
LINE
  5
92
330
47
100
AcDbEntity
  8
0
  6
Continuous
 62
     7
100
AcDbLine
 10
-33.17065004671656
 20
-43.30965687840915
 30
0.0
 11
-32.89096560930269
 21
-43.39039482102347
 31
0.0
  0
LINE
  5
93
330
47
100
AcDbEntity
  8
0
  6
Continuous
 62
     7
100
AcDbLine
 10
-34.28555957313449
 20
-41.16915687286193
 30
0.0
 11
-33.56620206966664
 21
-44.06149624872923
 31
0.0
  0
LINE
  5
94
330
47
100
AcDbEntity
  8
0
  6
Continuous
 62
     7
100
AcDbLine
 10
-30.79085400512508
 20
-41.22536352891338
 30
0.0
 11
-27.71585400512509
 21
-38.56233541227623
 31
0.0
  0
LINE
  5
95
330
47
100
AcDbEntity
  8
0
  6
Continuous
 62
     7
100
AcDbLine
 10
-33.65795674261668
 20
-41.35033020443379
 30
0.0
 11
-30.79085400512508
 21
-42.17799147307628
 31
0.0
  0
LINE
  5
96
330
47
100
AcDbEntity
  8
0
  6
Continuous
 62
     7
100
AcDbLine
 10
-30.79085400512508
 20
-41.22536352891338
 30
0.0
 11
-30.79085400512508
 21
-42.17799147307628
 31
0.0
  0
LINE
  5
97
330
47
100
AcDbEntity
  8
0
  6
Continuous
 62
     7
100
AcDbLine
 10
-30.79085400512508
 20
-42.17799147307628
 30
0.0
 11
-27.71585400512509
 21
-39.51496335643913
 31
0.0
  0
LINE
  5
98
330
47
100
AcDbEntity
  8
0
  6
Continuous
 62
     7
100
AcDbLine
 10
-36.38941517685406
 20
-40.56182607328988
 30
0.0
 11
-34.28555957313449
 21
-41.16915687286193
 31
0.0
  0
LINE
  5
99
330
47
100
AcDbEntity
  8
0
  6
Continuous
 62
     7
100
AcDbLine
 10
-37.10877268032073
 20
-43.03884420088703
 30
0.0
 11
-34.78377268032013
 21
-41.02533513708821
 31
0.0
  0
LINE
  5
9A
330
47
100
AcDbEntity
  8
0
  6
Continuous
 62
     7
100
AcDbLine
 10
-37.29039301422965
 20
-41.32198558992215
 30
0.0
 11
-38.11133597603836
 21
-42.03294304990675
 31
0.0
  0
LINE
  5
9B
330
47
100
AcDbEntity
  8
0
  6
Continuous
 62
     2
100
AcDbLine
 10
-37.37902090800411
 20
-41.62716472328891
 30
0.0
 11
-37.78400914068447
 21
-41.97789482102376
 31
0.0
  0
LINE
  5
9C
330
47
100
AcDbEntity
  8
0
  6
Continuous
 62
     7
100
AcDbLine
 10
-37.78400914068447
 20
-42.8439202248082
 30
0.0
 11
-37.10877268032073
 21
-43.03884420088703
 31
0.0
  0
LINE
  5
9D
330
47
100
AcDbEntity
  8
0
  6
Continuous
 62
     7
100
AcDbLine
 10
-37.5043247032712
 20
-42.05863276363811
 30
0.0
 11
-37.01701800737187
 21
-40.38065274171822
 31
0.0
  0
LINE
  5
9E
330
47
100
AcDbEntity
  8
0
  6
Continuous
 62
     7
100
AcDbLine
 10
-37.10877268032073
 20
-43.03884420088703
 30
0.0
 11
-36.38941517685406
 21
-40.56182607328988
 31
0.0
  0
LINE
  5
9F
330
47
100
AcDbEntity
  8
0
  6
Continuous
 62
     7
100
AcDbLine
 10
-37.78400914068447
 20
-41.97789482102376
 30
0.0
 11
-37.5043247032712
 21
-42.05863276363811
 31
0.0
  0
SPLINE
  5
A0
330
47
100
AcDbEntity
  8
0
  6
Continuous
 62
     7
100
AcDbSpline
210
0.0
220
0.0
230
1.0
 70
     8
 71
     3
 72
    15
 73
    11
 74
     9
 42
0.000000001
 43
0.0000000001
 44
0.00000001
 40
0.0
 40
0.0
 40
0.0
 40
0.0
 40
0.1075605161160165
 40
0.2212191566791964
 40
0.3444594698633997
 40
0.4773441629486015
 40
0.6171468747724714
 40
0.7594447323086667
 40
0.8992538434256582
 40
1.03215005440142
 40
1.03215005440142
 40
1.03215005440142
 40
1.03215005440142
 10
-32.56363877394882
 20
-44.20137199592512
 30
0.0
 10
-32.53910922500481
 20
-44.17465038415534
 30
0.0
 10
-32.48865943966152
 20
-44.11969217531394
 30
0.0
 10
-32.45614621744141
 20
-44.00580971938021
 30
0.0
 10
-32.45716321010497
 20
-43.88150275689833
 30
0.0
 10
-32.49320080107091
 20
-43.75301272492601
 30
0.0
 10
-32.56004735192318
 20
-43.63059505668199
 30
0.0
 10
-32.65297866192635
 20
-43.52403930649616
 30
0.0
 10
-32.76381220906273
 20
-43.43819339369446
 30
0.0
 10
-32.84930352347026
 20
-43.40605612130018
 30
0.0
 10
-32.89096560930269
 20
-43.39039482102347
 30
0.0
 11
-32.56363877394882
 21
-44.20137199592512
 31
0.0
 11
-32.49704047092679
 21
-44.11690939001522
 31
0.0
 11
-32.4623476998958
 21
-44.00867492418081
 31
0.0
 11
-32.46237110239903
 21
-43.8854346102206
 31
0.0
 11
-32.49710804414858
 21
-43.75717048075458
 31
0.0
 11
-32.56374572378042
 21
-43.63427126161918
 31
0.0
 11
-32.6568862170398
 21
-43.52669092530583
 31
0.0
 11
-32.76898611592415
 21
-43.44314333393157
 31
0.0
 11
-32.89096560930269
 21
-43.39039482102347
 31
0.0
  0
SPLINE
  5
A1
330
47
100
AcDbEntity
  8
0
  6
Continuous
 62
     7
100
AcDbSpline
210
0.0
220
0.0
230
1.0
 70
     8
 71
     3
 72
    11
 73
     7
 74
     5
 42
0.000000001
 43
0.0000000001
 44
0.00000001
 40
0.0
 40
0.0
 40
0.0
 40
0.0
 40
0.0935705952110021
 40
0.1815181363976991
 40
0.264769094469694
 40
0.3453217744506952
 40
0.3453217744506952
 40
0.3453217744506952
 40
0.3453217744506952
 10
-32.8909656093027
 20
-44.25642022480811
 30
0.0
 10
-32.86043530204633
 20
-44.26346062512469
 30
0.0
 10
-32.80120938089877
 20
-44.27711832384492
 30
0.0
 10
-32.71217710529228
 20
-44.27264483477044
 30
0.0
 10
-32.62993986977551
 20
-44.24968022030718
 30
0.0
 10
-32.58549509577168
 20
-44.21729692873809
 30
0.0
 10
-32.56363877394882
 20
-44.20137199592512
 30
0.0
 11
-32.8909656093027
 21
-44.25642022480811
 31
0.0
 11
-32.79889316816059
 21
-44.27309721308895
 31
0.0
 11
-32.71103168150931
 21
-44.2692075388938
 31
0.0
 11
-32.63139957119446
 21
-44.24492895779684
 31
0.0
 11
-32.56363877394882
 21
-44.20137199592512
 31
0.0
  0
SPLINE
  5
A2
330
47
100
AcDbEntity
  8
0
  6
Continuous
 62
     7
100
AcDbSpline
210
0.0
220
0.0
230
1.0
 70
     8
 71
     3
 72
    11
 73
     7
 74
     5
 42
0.000000001
 43
0.0000000001
 44
0.00000001
 40
0.0
 40
0.0
 40
0.0
 40
0.0
 40
0.1231062047300156
 40
0.2550331524723997
 40
0.3998739696126964
 40
0.5561029043244977
 40
0.5561029043244977
 40
0.5561029043244977
 40
0.5561029043244977
 10
-29.48863877394881
 20
-41.53834387928797
 30
0.0
 10
-29.46100385485758
 20
-41.50714688116604
 30
0.0
 10
-29.40375394530465
 20
-41.44251756507944
 30
0.0
 10
-29.37652932232577
 20
-41.30697896387029
 30
0.0
 10
-29.39075283935772
 20
-41.16122345574099
 30
0.0
 10
-29.43411807471803
 20
-41.06990037817951
 30
0.0
 10
-29.45662085546464
 20
-41.02251167089899
 30
0.0
 11
-29.48863877394881
 21
-41.53834387928797
 31
0.0
 11
-29.41502779826295
 21
-41.43966985701447
 31
0.0
 11
-29.38375570323583
 21
-41.31150286915562
 31
0.0
 11
-29.39812645109831
 21
-41.16737672724638
 31
0.0
 11
-29.45662085546464
 21
-41.02251167089899
 31
0.0
  0
SPLINE
  5
A3
330
47
100
AcDbEntity
  8
0
  6
Continuous
 62
     7
100
AcDbSpline
210
0.0
220
0.0
230
1.0
 70
     8
 71
     3
 72
    11
 73
     7
 74
     5
 42
0.000000001
 43
0.0000000001
 44
0.00000001
 40
0.0
 40
0.0
 40
0.0
 40
0.0
 40
0.0935705952108477
 40
0.1815181363975256
 40
0.2647690944695519
 40
0.3453217744505727
 40
0.3453217744505727
 40
0.3453217744505727
 40
0.3453217744505727
 10
-37.78400914068447
 20
-41.97789482102376
 30
0.0
 10
-37.81453944794081
 20
-41.97085442070724
 30
0.0
 10
-37.8737653690883
 20
-41.95719672198709
 30
0.0
 10
-37.96279764469476
 20
-41.96167021106159
 30
0.0
 10
-38.04503488021147
 20
-41.98463482552491
 30
0.0
 10
-38.08947965421545
 20
-42.01701811709388
 30
0.0
 10
-38.11133597603836
 20
-42.03294304990675
 30
0.0
 11
-37.78400914068447
 21
-41.97789482102376
 31
0.0
 11
-37.87608158182644
 21
-41.96121783274305
 31
0.0
 11
-37.9639430684777
 21
-41.96510750693824
 31
0.0
 11
-38.04357517879258
 21
-41.98938608803521
 31
0.0
 11
-38.11133597603836
 21
-42.03294304990675
 31
0.0
  0
SPLINE
  5
A4
330
47
100
AcDbEntity
  8
0
  6
Continuous
 62
     7
100
AcDbSpline
210
0.0
220
0.0
230
1.0
 70
     8
 71
     3
 72
    15
 73
    11
 74
     9
 42
0.000000001
 43
0.0000000001
 44
0.00000001
 40
0.0
 40
0.0
 40
0.0
 40
0.0
 40
0.1075605161160534
 40
0.221219156679194
 40
0.3444594698633262
 40
0.4773441629484444
 40
0.617146874772223
 40
0.7594447323083259
 40
0.8992538434251909
 40
1.03215005440071
 40
1.03215005440071
 40
1.03215005440071
 40
1.03215005440071
 10
-38.11133597603836
 20
-42.03294304990675
 30
0.0
 10
-38.13586552498228
 20
-42.05966466167664
 30
0.0
 10
-38.18631531032533
 20
-42.1146228705182
 30
0.0
 10
-38.21882853254539
 20
-42.22850532645187
 30
0.0
 10
-38.21781153988178
 20
-42.35281228893371
 30
0.0
 10
-38.18177394891581
 20
-42.48130232090593
 30
0.0
 10
-38.11492739806357
 20
-42.60371998914987
 30
0.0
 10
-38.02199608806045
 20
-42.71027573933561
 30
0.0
 10
-37.91116254092418
 20
-42.79612165213717
 30
0.0
 10
-37.82567122651682
 20
-42.8282589245315
 30
0.0
 10
-37.78400914068447
 20
-42.8439202248082
 30
0.0
 11
-38.11133597603836
 21
-42.03294304990675
 31
0.0
 11
-38.17793427906013
 21
-42.1174056558169
 31
0.0
 11
-38.21262705009102
 21
-42.2256401216513
 31
0.0
 11
-38.21260364758773
 21
-42.34888043561144
 31
0.0
 11
-38.17786670583816
 21
-42.47714456507737
 31
0.0
 11
-38.11122902620634
 21
-42.60004378421267
 31
0.0
 11
-38.018088532947
 21
-42.70762412052594
 31
0.0
 11
-37.90598863406275
 21
-42.79117171190013
 31
0.0
 11
-37.78400914068447
 21
-42.8439202248082
 31
0.0
  0
ENDBLK
  5
49
330
47
100
AcDbEntity
  8
0
100
AcDbBlockEnd
  0
BLOCK
  5
4C
330
4A
100
AcDbEntity
  8
0
100
AcDbBlockBegin
  2
Allg1
 70
     0
 10
-33.79999636106697
 20
-40.40000105046698
 30
0.0
  3
Allg1
  1

  0
INSERT
  5
4B
330
4A
100
AcDbEntity
  8
0
100
AcDbBlockReference
  2
1051003_ZB_6_UNBEDRUCKT-select__1
 10
-39.88412074486248
 20
-44.27870552369237
 30
0.0
  0
MTEXT
  5
A6
330
4A
100
AcDbEntity
  8
1
 62
     6
100
AcDbMText
 10
-33.79999636106685
 20
-45.8626594982124
 30
0.0
 40
1.0
 41
0.0
 71
     2
 72
     1
  1
 
  7
CONVERTER_11
 73
     1
 44
1.32052821128451
  0
ENDBLK
  5
4D
330
4A
100
AcDbEntity
  8
0
100
AcDbBlockEnd
  0
BLOCK
  5
4F
330
4E
100
AcDbEntity
  8
0
100
AcDbBlockBegin
  2
1051003_ZB_6_UNBEDRUCKT-select__2
 70
     0
 10
-64.44998539437441
 20
-41.87500004767371
 30
0.0
  3
1051003_ZB_6_UNBEDRUCKT-select__2
  1

  0
LINE
  5
A7
330
4E
100
AcDbEntity
  8
0
  6
Continuous
 62
     7
100
AcDbLine
 10
-64.44998539437441
 20
-41.87500004767371
 30
0.0
 11
-64.4499853943735
 21
-35.72500004767371
 31
0.0
  0
LINE
  5
A8
330
4E
100
AcDbEntity
  8
0
  6
Continuous
 62
     7
100
AcDbLine
 10
-53.9499853943735
 20
-41.87500004767371
 30
0.0
 11
-53.9499853943735
 21
-35.72500004767371
 31
0.0
  0
LINE
  5
A9
330
4E
100
AcDbEntity
  8
0
  6
Continuous
 62
     7
100
AcDbLine
 10
-53.9499853943735
 20
-35.72500004767371
 30
0.0
 11
-64.4499853943735
 21
-35.72500004767371
 31
0.0
  0
LINE
  5
AA
330
4E
100
AcDbEntity
  8
0
  6
Continuous
 62
     7
100
AcDbLine
 10
-53.9499853943735
 20
-41.87500004767371
 30
0.0
 11
-64.44998539437441
 21
-41.87500004767371
 31
0.0
  0
ENDBLK
  5
50
330
4E
100
AcDbEntity
  8
0
100
AcDbBlockEnd
  0
BLOCK
  5
53
330
51
100
AcDbEntity
  8
0
100
AcDbBlockBegin
  2
Drfsicht1
 70
     0
 10
-59.199995798125
 20
-38.799999999995
 30
0.0
  3
Drfsicht1
  1

  0
INSERT
  5
52
330
51
100
AcDbEntity
  8
0
100
AcDbBlockReference
  2
1051003_ZB_6_UNBEDRUCKT-select__2
 10
-64.44998539437441
 20
-41.87500004767371
 30
0.0
  0
MTEXT
  5
AB
330
51
100
AcDbEntity
  8
1
 62
     6
100
AcDbMText
 10
-59.19999579812489
 20
-42.8750000476787
 30
0.0
 40
1.0
 41
0.0
 71
     2
 72
     1
  1
 
  7
CONVERTER_11
 73
     1
 44
1.32052821128451
  0
DIMENSION
  5
B6
330
51
100
AcDbEntity
  8
1
100
AcDbDimension
  2
*D17
 10
-66.44998539437441
 20
-35.72500004767371
 30
0.0
 11
-67.13498539437441
 21
-38.70043676408101
 31
0.0
 70
    32
  1
<>
 71
     5
 42
-1.0
 53
90.0
  3
ME10_DIM_10
100
AcDbAlignedDimension
 13
-64.44998539437441
 23
-41.87500004767372
 33
0.0
 14
-64.4499853943735
 24
-35.72500004767371
 34
0.0
 50
90.0
100
AcDbRotatedDimension
  0
ENDBLK
  5
54
330
51
100
AcDbEntity
  8
0
100
AcDbBlockEnd
  0
BLOCK
  5
56
330
55
100
AcDbEntity
  8
0
100
AcDbBlockBegin
  2
1051003_ZB_6_UNBEDRUCKT-select__3
 70
     0
 10
-39.80001491400915
 20
-26.12500812204357
 30
0.0
  3
1051003_ZB_6_UNBEDRUCKT-select__3
  1

  0
LINE
  5
B7
330
55
100
AcDbEntity
  8
0
  6
Continuous
 62
     7
100
AcDbLine
 10
-35.76467651315172
 20
-23.02500812204337
 30
0.0
 11
-36.59531900969321
 21
-26.12500812204357
 31
0.0
  0
LINE
  5
B8
330
55
100
AcDbEntity
  8
0
  6
Continuous
 62
     7
100
AcDbLine
 10
-36.59531900969321
 20
-26.12500812204357
 30
0.0
 11
-37.37501491400874
 21
-26.12500812204357
 31
0.0
  0
LINE
  5
B9
330
55
100
AcDbEntity
  8
0
  6
Continuous
 62
     7
100
AcDbLine
 10
-31.7250149140091
 20
-26.12500812204357
 30
0.0
 11
-32.50471081832441
 21
-26.12500812204357
 31
0.0
  0
LINE
  5
BA
330
55
100
AcDbEntity
  8
0
  6
Continuous
 62
     7
100
AcDbLine
 10
-32.0479666844665
 20
-25.12500812204357
 30
0.0
 11
-31.7250149140091
 21
-25.12500812204357
 31
0.0
  0
LINE
  5
BB
330
55
100
AcDbEntity
  8
0
  6
Continuous
 62
     7
100
AcDbLine
 10
-37.05206314355065
 20
-25.12500812204357
 30
0.0
 11
-36.48936983943897
 21
-23.02500812204343
 31
0.0
  0
LINE
  5
BC
330
55
100
AcDbEntity
  8
0
  6
Continuous
 62
     7
100
AcDbLine
 10
-37.37501491400874
 20
-25.12500812204357
 30
0.0
 11
-37.05206314355065
 21
-25.12500812204357
 31
0.0
  0
LINE
  5
BD
330
55
100
AcDbEntity
  8
0
  6
Continuous
 62
     7
100
AcDbLine
 10
-29.30001491400915
 20
-21.92500812204335
 30
0.0
 11
-29.30001491400915
 21
-23.02500812204326
 31
0.0
  0
LINE
  5
BE
330
55
100
AcDbEntity
  8
0
  6
Continuous
 62
     7
100
AcDbLine
 10
-39.80001491400915
 20
-21.92500812204335
 30
0.0
 11
-29.30001491400915
 21
-21.92500812204335
 31
0.0
  0
LINE
  5
BF
330
55
100
AcDbEntity
  8
0
  6
Continuous
 62
     7
100
AcDbLine
 10
-39.80001491400915
 20
-23.02500812204337
 30
0.0
 11
-39.80001491400915
 21
-21.92500812204335
 31
0.0
  0
LINE
  5
C0
330
55
100
AcDbEntity
  8
0
  6
Continuous
 62
     7
100
AcDbLine
 10
-36.48936983943897
 20
-23.02500812204343
 30
0.0
 11
-39.80001491400915
 21
-23.02500812204337
 31
0.0
  0
LINE
  5
C1
330
55
100
AcDbEntity
  8
0
  6
Continuous
 62
     7
100
AcDbLine
 10
-33.33535331486453
 20
-23.02500812204309
 30
0.0
 11
-35.76467651315172
 21
-23.02500812204337
 31
0.0
  0
LINE
  5
C2
330
55
100
AcDbEntity
  8
0
  6
Continuous
 62
     7
100
AcDbLine
 10
-29.30001491400915
 20
-23.02500812204326
 30
0.0
 11
-32.61065998857728
 21
-23.02500812204326
 31
0.0
  0
LINE
  5
C3
330
55
100
AcDbEntity
  8
0
  6
Continuous
 62
     7
100
AcDbLine
 10
-32.50471081832441
 20
-26.12500812204357
 30
0.0
 11
-33.33535331486453
 21
-23.02500812204309
 31
0.0
  0
LINE
  5
C4
330
55
100
AcDbEntity
  8
0
  6
Continuous
 62
     7
100
AcDbLine
 10
-32.61065998857728
 20
-23.02500812204326
 30
0.0
 11
-32.0479666844665
 21
-25.12500812204357
 31
0.0
  0
ARC
  5
C5
330
55
100
AcDbEntity
  8
0
  6
Continuous
 62
     7
100
AcDbCircle
 10
-31.7250149140091
 20
-25.62500812204357
 30
0.0
 40
0.5
100
AcDbArc
 50
270.0
 51
90.0
  0
ARC
  5
C6
330
55
100
AcDbEntity
  8
0
  6
Continuous
 62
     7
100
AcDbCircle
 10
-37.37501491400874
 20
-25.62500812204357
 30
0.0
 40
0.5
100
AcDbArc
 50
90.0
 51
270.0
  0
ENDBLK
  5
57
330
55
100
AcDbEntity
  8
0
100
AcDbBlockEnd
  0
BLOCK
  5
5A
330
58
100
AcDbEntity
  8
0
100
AcDbBlockBegin
  2
Rckans1
 70
     0
 10
-34.55000451025764
 20
-24.02500910758968
 30
0.0
  3
Rckans1
  1

  0
INSERT
  5
59
330
58
100
AcDbEntity
  8
0
100
AcDbBlockReference
  2
1051003_ZB_6_UNBEDRUCKT-select__3
 10
-39.80001491400915
 20
-26.12500812204357
 30
0.0
  0
MTEXT
  5
C7
330
58
100
AcDbEntity
  8
1
 62
     6
100
AcDbMText
 10
-34.55000451025782
 20
-27.12499995231624
 30
0.0
 40
1.0
 41
0.0
 71
     2
 72
     1
  1
 
  7
CONVERTER_11
 73
     1
 44
1.32052821128451
  0
ENDBLK
  5
5B
330
58
100
AcDbEntity
  8
0
100
AcDbBlockEnd
  0
BLOCK
  5
5D
330
5C
100
AcDbEntity
  8
0
100
AcDbBlockBegin
  2
1051003_ZB_6_UNBEDRUCKT-select__4
 70
     0
 10
-49.95000010651768
 20
-26.12500812204356
 30
0.0
  3
1051003_ZB_6_UNBEDRUCKT-select__4
  1

  0
LINE
  5
C8
330
5C
100
AcDbEntity
  8
0
  6
Continuous
 62
     7
100
AcDbLine
 10
-43.80000010651768
 20
-21.92500812204335
 30
0.0
 11
-49.95000010651768
 21
-21.92500812204335
 31
0.0
  0
LINE
  5
C9
330
5C
100
AcDbEntity
  8
0
  6
Continuous
 62
     7
100
AcDbLine
 10
-43.80000010651768
 20
-26.12500812204356
 30
0.0
 11
-49.95000010651768
 21
-26.12500812204356
 31
0.0
  0
LINE
  5
CA
330
5C
100
AcDbEntity
  8
0
  6
Continuous
 62
     7
100
AcDbLine
 10
-43.80000010651768
 20
-23.02500812204326
 30
0.0
 11
-43.80000010651768
 21
-25.12500812204356
 31
0.0
  0
LINE
  5
CB
330
5C
100
AcDbEntity
  8
0
  6
Continuous
 62
     7
100
AcDbLine
 10
-43.80000010651768
 20
-23.02500812204326
 30
0.0
 11
-43.80000010651768
 21
-21.92500812204335
 31
0.0
  0
LINE
  5
CC
330
5C
100
AcDbEntity
  8
0
  6
Continuous
 62
     7
100
AcDbLine
 10
-43.80000010651768
 20
-25.12500812204356
 30
0.0
 11
-43.80000010651768
 21
-26.12500812204356
 31
0.0
  0
LINE
  5
CD
330
5C
100
AcDbEntity
  8
0
  6
Continuous
 62
     7
100
AcDbLine
 10
-43.80000010651768
 20
-23.02500812204326
 30
0.0
 11
-49.95000010651768
 21
-23.02500812204326
 31
0.0
  0
LINE
  5
CE
330
5C
100
AcDbEntity
  8
0
  6
Continuous
 62
     7
100
AcDbLine
 10
-49.95000010651768
 20
-23.02500812204326
 30
0.0
 11
-49.95000010651768
 21
-25.12500812204356
 31
0.0
  0
LINE
  5
CF
330
5C
100
AcDbEntity
  8
0
  6
Continuous
 62
     7
100
AcDbLine
 10
-49.95000010651768
 20
-21.92500812204335
 30
0.0
 11
-49.95000010651768
 21
-23.02500812204326
 31
0.0
  0
LINE
  5
D0
330
5C
100
AcDbEntity
  8
0
  6
Continuous
 62
     7
100
AcDbLine
 10
-49.95000010651768
 20
-25.12500812204356
 30
0.0
 11
-49.95000010651768
 21
-26.12500812204356
 31
0.0
  0
LINE
  5
D1
330
5C
100
AcDbEntity
  8
0
  6
Continuous
 62
     7
100
AcDbLine
 10
-49.95000010651768
 20
-25.12500812204356
 30
0.0
 11
-43.80000010651768
 21
-25.12500812204356
 31
0.0
  0
ENDBLK
  5
5E
330
5C
100
AcDbEntity
  8
0
100
AcDbBlockEnd
  0
BLOCK
  5
61
330
5F
100
AcDbEntity
  8
0
100
AcDbBlockBegin
  2
SA_Links1
 70
     0
 10
-46.8750001541964
 20
-24.02500910758968
 30
0.0
  3
SA_Links1
  1

  0
INSERT
  5
60
330
5F
100
AcDbEntity
  8
0
100
AcDbBlockReference
  2
1051003_ZB_6_UNBEDRUCKT-select__4
 10
-49.95000010651768
 20
-26.12500812204356
 30
0.0
  0
MTEXT
  5
D2
330
5F
100
AcDbEntity
  8
1
 62
     6
100
AcDbMText
 10
-46.87500015419636
 20
-27.12499995231624
 30
0.0
 40
1.0
 41
0.0
 71
     2
 72
     1
  1
 
  7
CONVERTER_11
 73
     1
 44
1.32052821128451
  0
ENDBLK
  5
62
330
5F
100
AcDbEntity
  8
0
100
AcDbBlockEnd
  0
BLOCK
  5
64
330
63
100
AcDbEntity
  8
0
100
AcDbBlockBegin
  2
1051003_ZB_6_UNBEDRUCKT-select__5
 70
     0
 10
-76.59999189348218
 20
-26.12500812204356
 30
0.0
  3
1051003_ZB_6_UNBEDRUCKT-select__5
  1

  0
LINE
  5
D3
330
63
100
AcDbEntity
  8
0
  6
Continuous
 62
     7
100
AcDbLine
 10
-70.44999189348219
 20
-26.12500812204356
 30
0.0
 11
-76.59999189348218
 21
-26.12500812204356
 31
0.0
  0
LINE
  5
D4
330
63
100
AcDbEntity
  8
0
  6
Continuous
 62
     7
100
AcDbLine
 10
-76.59999189348218
 20
-23.02500812204343
 30
0.0
 11
-76.59999189348218
 21
-25.12500812204356
 31
0.0
  0
LINE
  5
D5
330
63
100
AcDbEntity
  8
0
  6
Continuous
 62
     7
100
AcDbLine
 10
-70.44999189348219
 20
-26.12500812204356
 30
0.0
 11
-70.44999189348219
 21
-25.12500812204356
 31
0.0
  0
LINE
  5
D6
330
63
100
AcDbEntity
  8
0
  6
Continuous
 62
     7
100
AcDbLine
 10
-70.44999189348219
 20
-25.12500812204356
 30
0.0
 11
-70.44999189348219
 21
-23.02500812204343
 31
0.0
  0
LINE
  5
D7
330
63
100
AcDbEntity
  8
0
  6
Continuous
 62
     7
100
AcDbLine
 10
-76.59999189348218
 20
-26.12500812204356
 30
0.0
 11
-76.59999189348218
 21
-25.12500812204356
 31
0.0
  0
LINE
  5
D8
330
63
100
AcDbEntity
  8
0
  6
Continuous
 62
     7
100
AcDbLine
 10
-70.44999189348219
 20
-25.12500812204356
 30
0.0
 11
-76.59999189348218
 21
-25.12500812204356
 31
0.0
  0
LINE
  5
D9
330
63
100
AcDbEntity
  8
0
  6
Continuous
 62
     7
100
AcDbLine
 10
-70.44999189348219
 20
-23.02500812204343
 30
0.0
 11
-70.44999189348219
 21
-21.92500812204335
 31
0.0
  0
LINE
  5
DA
330
63
100
AcDbEntity
  8
0
  6
Continuous
 62
     7
100
AcDbLine
 10
-76.59999189348218
 20
-21.92500812204335
 30
0.0
 11
-70.44999189348219
 21
-21.92500812204335
 31
0.0
  0
LINE
  5
DB
330
63
100
AcDbEntity
  8
0
  6
Continuous
 62
     7
100
AcDbLine
 10
-76.59999189348218
 20
-21.92500812204335
 30
0.0
 11
-76.59999189348218
 21
-23.02500812204343
 31
0.0
  0
LINE
  5
DC
330
63
100
AcDbEntity
  8
0
  6
Continuous
 62
     7
100
AcDbLine
 10
-76.59999189348218
 20
-23.02500812204343
 30
0.0
 11
-70.44999189348219
 21
-23.02500812204343
 31
0.0
  0
ENDBLK
  5
65
330
63
100
AcDbEntity
  8
0
100
AcDbBlockEnd
  0
BLOCK
  5
68
330
66
100
AcDbEntity
  8
0
100
AcDbBlockBegin
  2
SA_Rechts1
 70
     0
 10
-73.52499184580347
 20
-24.02500910758968
 30
0.0
  3
SA_Rechts1
  1

  0
INSERT
  5
67
330
66
100
AcDbEntity
  8
0
100
AcDbBlockReference
  2
1051003_ZB_6_UNBEDRUCKT-select__5
 10
-76.59999189348218
 20
-26.12500812204356
 30
0.0
  0
MTEXT
  5
DD
330
66
100
AcDbEntity
  8
1
 62
     6
100
AcDbMText
 10
-73.52499184580344
 20
-27.12499995231627
 30
0.0
 40
1.0
 41
0.0
 71
     2
 72
     1
  1
 
  7
CONVERTER_11
 73
     1
 44
1.32052821128451
  0
ENDBLK
  5
69
330
66
100
AcDbEntity
  8
0
100
AcDbBlockEnd
  0
BLOCK
  5
6B
330
6A
100
AcDbEntity
  8
0
100
AcDbBlockBegin
  2
1051003_ZB_6_UNBEDRUCKT-select__6
 70
     0
 10
-64.44998539437435
 20
-26.12500812204357
 30
0.0
  3
1051003_ZB_6_UNBEDRUCKT-select__6
  1

  0
LINE
  5
DE
330
6A
100
AcDbEntity
  8
0
  6
Continuous
 62
     7
100
AcDbLine
 10
-57.98532379523088
 20
-23.02500812204337
 30
0.0
 11
-57.15468129868938
 21
-26.12500812204357
 31
0.0
  0
LINE
  5
DF
330
6A
100
AcDbEntity
  8
0
  6
Continuous
 62
     7
100
AcDbLine
 10
-64.44998539437435
 20
-23.02500812204326
 30
0.0
 11
-64.44998539437435
 21
-21.92500812204335
 31
0.0
  0
LINE
  5
E0
330
6A
100
AcDbEntity
  8
0
  6
Continuous
 62
     7
100
AcDbLine
 10
-64.44998539437435
 20
-23.02500812204326
 30
0.0
 11
-61.13934031980531
 21
-23.02500812204326
 31
0.0
  0
LINE
  5
E1
330
6A
100
AcDbEntity
  8
0
  6
Continuous
 62
     7
100
AcDbLine
 10
-60.41464699351806
 20
-23.02500812204309
 30
0.0
 11
-57.98532379523088
 21
-23.02500812204337
 31
0.0
  0
LINE
  5
E2
330
6A
100
AcDbEntity
  8
0
  6
Continuous
 62
     7
100
AcDbLine
 10
-53.94998539437344
 20
-21.92500812204335
 30
0.0
 11
-64.44998539437435
 21
-21.92500812204335
 31
0.0
  0
LINE
  5
E3
330
6A
100
AcDbEntity
  8
0
  6
Continuous
 62
     7
100
AcDbLine
 10
-61.70203362391609
 20
-25.12500812204357
 30
0.0
 11
-61.13934031980531
 21
-23.02500812204326
 31
0.0
  0
LINE
  5
E4
330
6A
100
AcDbEntity
  8
0
  6
Continuous
 62
     7
100
AcDbLine
 10
-61.24528949005818
 20
-26.12500812204357
 30
0.0
 11
-60.41464699351806
 21
-23.02500812204309
 31
0.0
  0
LINE
  5
E5
330
6A
100
AcDbEntity
  8
0
  6
Continuous
 62
     7
100
AcDbLine
 10
-57.26063046894362
 20
-23.02500812204343
 30
0.0
 11
-56.69793716483193
 21
-25.12500812204357
 31
0.0
  0
LINE
  5
E6
330
6A
100
AcDbEntity
  8
0
  6
Continuous
 62
     7
100
AcDbLine
 10
-57.26063046894362
 20
-23.02500812204343
 30
0.0
 11
-53.94998539437344
 21
-23.02500812204337
 31
0.0
  0
LINE
  5
E7
330
6A
100
AcDbEntity
  8
0
  6
Continuous
 62
     7
100
AcDbLine
 10
-53.94998539437344
 20
-21.92500812204335
 30
0.0
 11
-53.94998539437344
 21
-23.02500812204337
 31
0.0
  0
LINE
  5
E8
330
6A
100
AcDbEntity
  8
0
  6
Continuous
 62
     7
100
AcDbLine
 10
-57.15468129868938
 20
-26.12500812204357
 30
0.0
 11
-56.37498539437385
 21
-26.12500812204357
 31
0.0
  0
LINE
  5
E9
330
6A
100
AcDbEntity
  8
0
  6
Continuous
 62
     7
100
AcDbLine
 10
-62.02498539437349
 20
-25.12500812204357
 30
0.0
 11
-61.70203362391609
 21
-25.12500812204357
 31
0.0
  0
LINE
  5
EA
330
6A
100
AcDbEntity
  8
0
  6
Continuous
 62
     7
100
AcDbLine
 10
-56.69793716483193
 20
-25.12500812204357
 30
0.0
 11
-56.37498539437385
 21
-25.12500812204357
 31
0.0
  0
LINE
  5
EB
330
6A
100
AcDbEntity
  8
0
  6
Continuous
 62
     7
100
AcDbLine
 10
-62.02498539437349
 20
-26.12500812204357
 30
0.0
 11
-61.24528949005818
 21
-26.12500812204357
 31
0.0
  0
ARC
  5
EC
330
6A
100
AcDbEntity
  8
0
  6
Continuous
 62
     7
100
AcDbCircle
 10
-56.37498539437385
 20
-25.62500812204357
 30
0.0
 40
0.5
100
AcDbArc
 50
270.0
 51
90.0
  0
ARC
  5
ED
330
6A
100
AcDbEntity
  8
0
  6
Continuous
 62
     7
100
AcDbCircle
 10
-62.02498539437349
 20
-25.62500812204357
 30
0.0
 40
0.5
100
AcDbArc
 50
90.0
 51
270.0
  0
ENDBLK
  5
6C
330
6A
100
AcDbEntity
  8
0
100
AcDbBlockEnd
  0
BLOCK
  5
6F
330
6D
100
AcDbEntity
  8
0
100
AcDbBlockBegin
  2
Vordans1
 70
     0
 10
-59.19999579812495
 20
-24.02500910758968
 30
0.0
  3
Vordans1
  1

  0
INSERT
  5
6E
330
6D
100
AcDbEntity
  8
0
100
AcDbBlockReference
  2
1051003_ZB_6_UNBEDRUCKT-select__6
 10
-64.44998539437435
 20
-26.12500812204357
 30
0.0
  0
MTEXT
  5
EE
330
6D
100
AcDbEntity
  8
1
 62
     6
100
AcDbMText
 10
-59.19999579812489
 20
-27.12499995231624
 30
0.0
 40
1.0
 41
0.0
 71
     2
 72
     1
  1
 
  7
CONVERTER_11
 73
     1
 44
1.32052821128451
  0
DIMENSION
  5
F9
330
6D
100
AcDbEntity
  8
1
100
AcDbDimension
  2
*D18
 10
-64.44998539437435
 20
-28.5738338101278
 30
0.0
 11
-59.0905097328596
 21
-27.8888338101278
 31
0.0
 70
    33
  1
<>
 71
     5
 42
-1.0
 53
0.00013888888889
  3
ME10_DIM_11
100
AcDbAlignedDimension
 13
-53.94998539437345
 23
-23.02500812204337
 33
0.0
 14
-64.44998539437437
 24
-23.02500812204326
 34
0.0
  0
DIMENSION
  5
104
330
6D
100
AcDbEntity
  8
1
100
AcDbDimension
  2
*D19
 10
-66.44998539437435
 20
-21.92500812204335
 30
0.0
 11
-67.13498539437435
 21
-24.02500812204346
 31
0.0
 70
    32
  1
<>
 71
     5
 42
-1.0
 53
90.0
  3
ME10_DIM_12
100
AcDbAlignedDimension
 13
-62.02498539437349
 23
-26.12500812204357
 33
0.0
 14
-64.44998539437437
 24
-21.92500812204335
 34
0.0
 50
90.0
100
AcDbRotatedDimension
  0
ENDBLK
  5
70
330
6D
100
AcDbEntity
  8
0
100
AcDbBlockEnd
  0
BLOCK
  5
72
330
71
100
AcDbEntity
  8
0
100
AcDbBlockBegin
  2
_rahmen
 70
     0
 10
-121.2500170187286
 20
-270.9691690506394
 30
0.0
  3
_rahmen
  1

  0
LINE
  5
105
330
71
100
AcDbEntity
  8
1
  6
Continuous
 62
     6
100
AcDbLine
 10
-250.7948215454786
 20
-240.4691690506393
 30
0.0
 11
-121.2500170187269
 21
-240.4691690506393
 31
0.0
  0
LINE
  5
106
330
71
100
AcDbEntity
  8
1
  6
Continuous
 62
     7
100
AcDbLine
 10
-232.5948215454786
 20
-261.7191690506393
 30
0.0
 11
-214.3948215454787
 21
-261.7191690506393
 31
0.0
  0
LINE
  5
107
330
71
100
AcDbEntity
  8
1
  6
Continuous
 62
     6
100
AcDbLine
 10
-232.5948215454786
 20
-265.9691690506393
 30
0.0
 11
-250.7948215454786
 21
-265.9691690506394
 31
0.0
  0
LINE
  5
108
330
71
100
AcDbEntity
  8
1
  6
Continuous
 62
     7
100
AcDbLine
 10
-232.5948215454786
 20
-261.7191690506393
 30
0.0
 11
-232.5948215454786
 21
-265.9691690506393
 31
0.0
  0
LINE
  5
109
330
71
100
AcDbEntity
  8
1
  6
Continuous
 62
     7
100
AcDbLine
 10
-214.3948215454787
 20
-261.7191690506393
 30
0.0
 11
-214.3948215454787
 21
-265.9691690506394
 31
0.0
  0
LINE
  5
10A
330
71
100
AcDbEntity
  8
1
  6
Continuous
 62
     7
100
AcDbLine
 10
-250.7948215454786
 20
-261.7191690506394
 30
0.0
 11
-250.7948215454786
 21
-265.9691690506394
 31
0.0
  0
LINE
  5
10B
330
71
100
AcDbEntity
  8
1
  6
Continuous
 62
     7
100
AcDbLine
 10
-250.7948215454786
 20
-261.7191690506394
 30
0.0
 11
-232.5948215454786
 21
-261.7191690506393
 31
0.0
  0
LINE
  5
10C
330
71
100
AcDbEntity
  8
1
  6
Continuous
 62
     2
100
AcDbLine
 10
-241.558166658916
 20
-242.3441690506394
 30
0.0
 11
-241.558166658916
 21
-247.3441690506394
 31
0.0
  0
LINE
  5
10D
330
71
100
AcDbEntity
  8
1
  6
Continuous
 62
     2
100
AcDbLine
 10
-241.558166658916
 20
-247.3441690506394
 30
0.0
 11
-246.558166658916
 21
-246.0941690506394
 31
0.0
  0
LINE
  5
10E
330
71
100
AcDbEntity
  8
1
  6
Continuous
 62
     2
100
AcDbLine
 10
-246.558166658916
 20
-246.0941690506394
 30
0.0
 11
-246.558166658916
 21
-243.5941690506394
 31
0.0
  0
LINE
  5
10F
330
71
100
AcDbEntity
  8
1
  6
Continuous
 62
     2
100
AcDbLine
 10
-246.558166658916
 20
-243.5941690506394
 30
0.0
 11
-241.558166658916
 21
-242.3441690506394
 31
0.0
  0
LINE
  5
110
330
71
100
AcDbEntity
  8
1
  6
Continuous
 62
     6
100
AcDbLine
 10
-373.2500170187268
 20
-265.9691690506393
 30
0.0
 11
-408.2500170187267
 21
-265.9691690506393
 31
0.0
  0
LINE
  5
111
330
71
100
AcDbEntity
  8
1
  6
Continuous
 62
     6
100
AcDbLine
 10
-121.2500170187269
 20
-248.9691690506393
 30
0.0
 11
-121.2500170187273
 21
-257.4691690506393
 31
0.0
  0
LINE
  5
112
330
71
100
AcDbEntity
  8
1
  6
Continuous
 62
     6
100
AcDbLine
 10
-214.3948215454787
 20
-265.9691690506394
 30
0.0
 11
-214.7500170187286
 21
-265.9691690506393
 31
0.0
  0
LINE
  5
113
330
71
100
AcDbEntity
  8
1
  6
Continuous
 62
     6
100
AcDbLine
 10
-367.0500170187288
 20
-265.9691690506394
 30
0.0
 11
-373.2500170187268
 21
-265.9691690506393
 31
0.0
  0
LINE
  5
114
330
71
100
AcDbEntity
  8
1
  6
Continuous
 62
     7
100
AcDbLine
 10
-214.3948215454787
 20
-248.9691690506393
 30
0.0
 11
-214.3948215454787
 21
-261.7191690506393
 31
0.0
  0
LINE
  5
115
330
71
100
AcDbEntity
  8
1
  6
Continuous
 62
     7
100
AcDbLine
 10
-250.7948215454786
 20
-248.9691690506393
 30
0.0
 11
-250.7948215454786
 21
-261.7191690506394
 31
0.0
  0
LINE
  5
116
330
71
100
AcDbEntity
  8
1
  6
Continuous
 62
     6
100
AcDbLine
 10
-264.7500170187286
 20
-265.9691690506393
 30
0.0
 11
-314.7500170187288
 21
-265.9691690506393
 31
0.0
  0
LINE
  5
117
330
71
100
AcDbEntity
  8
1
  6
Continuous
 62
     6
100
AcDbLine
 10
-367.0500170187288
 20
-265.9691690506394
 30
0.0
 11
-364.7500170187286
 21
-265.9691690506393
 31
0.0
  0
LINE
  5
118
330
71
100
AcDbEntity
  8
1
  6
Continuous
 62
     6
100
AcDbLine
 10
-214.3948215454787
 20
-265.9691690506394
 30
0.0
 11
-164.7500170187286
 21
-265.9691690506393
 31
0.0
  0
LINE
  5
119
330
71
100
AcDbEntity
  8
1
  6
Continuous
 62
     6
100
AcDbLine
 10
-121.2500170187286
 20
-265.9691690506393
 30
0.0
 11
-121.2500170187273
 21
-257.4691690506393
 31
0.0
  0
LINE
  5
11A
330
71
100
AcDbEntity
  8
1
  6
Continuous
 62
     2
100
AcDbLine
 10
-413.2500170187277
 20
-265.9691690506393
 30
0.0
 11
-413.2500170187277
 21
-270.9691690506394
 31
0.0
  0
LINE
  5
11B
330
71
100
AcDbEntity
  8
1
  6
Continuous
 62
     2
100
AcDbLine
 10
-408.2500170187267
 20
-265.9691690506393
 30
0.0
 11
-413.2500170187277
 21
-265.9691690506393
 31
0.0
  0
LINE
  5
11C
330
71
100
AcDbEntity
  8
1
  6
Continuous
 62
     2
100
AcDbLine
 10
-408.2500170187267
 20
-270.9691690506394
 30
0.0
 11
-364.7500170187286
 21
-270.9691690506394
 31
0.0
  0
LINE
  5
11D
330
71
100
AcDbEntity
  8
1
  6
Continuous
 62
     2
100
AcDbLine
 10
-408.2500170187267
 20
-265.9691690506393
 30
0.0
 11
-408.2500170187267
 21
-270.9691690506394
 31
0.0
  0
LINE
  5
11E
330
71
100
AcDbEntity
  8
1
  6
Continuous
 62
     2
100
AcDbLine
 10
-164.7500170187286
 20
-270.9691690506394
 30
0.0
 11
-214.7500170187286
 21
-270.9691690506394
 31
0.0
  0
LINE
  5
11F
330
71
100
AcDbEntity
  8
1
  6
Continuous
 62
     2
100
AcDbLine
 10
-164.7500170187286
 20
-270.9691690506394
 30
0.0
 11
-164.7500170187286
 21
-265.9691690506393
 31
0.0
  0
LINE
  5
120
330
71
100
AcDbEntity
  8
1
  6
Continuous
 62
     2
100
AcDbLine
 10
-214.7500170187286
 20
-270.9691690506394
 30
0.0
 11
-214.7500170187286
 21
-265.9691690506393
 31
0.0
  0
LINE
  5
121
330
71
100
AcDbEntity
  8
1
  6
Continuous
 62
     2
100
AcDbLine
 10
-264.7500170187286
 20
-270.9691690506394
 30
0.0
 11
-214.7500170187286
 21
-270.9691690506394
 31
0.0
  0
LINE
  5
122
330
71
100
AcDbEntity
  8
1
  6
Continuous
 62
     2
100
AcDbLine
 10
-264.7500170187286
 20
-270.9691690506394
 30
0.0
 11
-264.7500170187286
 21
-265.9691690506393
 31
0.0
  0
LINE
  5
123
330
71
100
AcDbEntity
  8
1
  6
Continuous
 62
     2
100
AcDbLine
 10
-314.7500170187288
 20
-270.9691690506394
 30
0.0
 11
-264.7500170187286
 21
-270.9691690506394
 31
0.0
  0
LINE
  5
124
330
71
100
AcDbEntity
  8
1
  6
Continuous
 62
     2
100
AcDbLine
 10
-314.7500170187288
 20
-270.9691690506394
 30
0.0
 11
-314.7500170187288
 21
-265.9691690506393
 31
0.0
  0
LINE
  5
125
330
71
100
AcDbEntity
  8
1
  6
Continuous
 62
     2
100
AcDbLine
 10
-364.7500170187286
 20
-270.9691690506394
 30
0.0
 11
-314.7500170187288
 21
-270.9691690506394
 31
0.0
  0
LINE
  5
126
330
71
100
AcDbEntity
  8
1
  6
Continuous
 62
     2
100
AcDbLine
 10
-364.7500170187286
 20
-270.9691690506394
 30
0.0
 11
-364.7500170187286
 21
-265.9691690506393
 31
0.0
  0
LINE
  5
127
330
71
100
AcDbEntity
  8
1
  6
Continuous
 62
     6
100
AcDbLine
 10
-408.2500170187269
 20
-215.9691690506392
 30
0.0
 11
-408.2500170187267
 21
-265.9691690506393
 31
0.0
  0
LINE
  5
128
330
71
100
AcDbEntity
  8
1
  6
Continuous
 62
     2
100
AcDbLine
 10
-413.2500170187277
 20
-215.9691690506392
 30
0.0
 11
-413.2500170187277
 21
-265.9691690506393
 31
0.0
  0
LINE
  5
129
330
71
100
AcDbEntity
  8
1
  6
Continuous
 62
     2
100
AcDbLine
 10
-413.2500170187277
 20
-215.9691690506392
 30
0.0
 11
-408.2500170187269
 21
-215.9691690506392
 31
0.0
  0
LINE
  5
12A
330
71
100
AcDbEntity
  8
1
  6
Continuous
 62
     6
100
AcDbLine
 10
-408.2500170187271
 20
-165.9691690506394
 30
0.0
 11
-408.2500170187269
 21
-215.9691690506392
 31
0.0
  0
LINE
  5
12B
330
71
100
AcDbEntity
  8
1
  6
Continuous
 62
     2
100
AcDbLine
 10
-413.2500170187277
 20
-165.9691690506394
 30
0.0
 11
-413.2500170187277
 21
-215.9691690506392
 31
0.0
  0
LINE
  5
12C
330
71
100
AcDbEntity
  8
1
  6
Continuous
 62
     2
100
AcDbLine
 10
-413.2500170187277
 20
-165.9691690506394
 30
0.0
 11
-408.2500170187271
 21
-165.9691690506394
 31
0.0
  0
LINE
  5
12D
330
71
100
AcDbEntity
  8
1
  6
Continuous
 62
     6
100
AcDbLine
 10
-408.2500170187276
 20
-115.9691690506393
 30
0.0
 11
-408.2500170187271
 21
-165.9691690506394
 31
0.0
  0
LINE
  5
12E
330
71
100
AcDbEntity
  8
1
  6
Continuous
 62
     2
100
AcDbLine
 10
-413.2500170187277
 20
-115.9691690506393
 30
0.0
 11
-413.2500170187277
 21
-165.9691690506394
 31
0.0
  0
LINE
  5
12F
330
71
100
AcDbEntity
  8
1
  6
Continuous
 62
     2
100
AcDbLine
 10
-413.2500170187277
 20
-115.9691690506393
 30
0.0
 11
-408.2500170187276
 21
-115.9691690506393
 31
0.0
  0
LINE
  5
130
330
71
100
AcDbEntity
  8
1
  6
Continuous
 62
     6
100
AcDbLine
 10
-408.2500170187277
 20
-80.9691690506393
 30
0.0
 11
-408.2500170187276
 21
-115.9691690506393
 31
0.0
  0
LINE
  5
131
330
71
100
AcDbEntity
  8
1
  6
Continuous
 62
     2
100
AcDbLine
 10
-413.2500170187277
 20
-60.96916905063929
 30
0.0
 11
-413.2500170187277
 21
-115.9691690506393
 31
0.0
  0
LINE
  5
132
330
71
100
AcDbEntity
  8
1
  6
Continuous
 62
     2
100
AcDbLine
 10
-413.2500170187277
 20
-270.9691690506394
 30
0.0
 11
-408.2500170187267
 21
-270.9691690506394
 31
0.0
  0
LINE
  5
133
330
71
100
AcDbEntity
  8
1
  6
Continuous
 62
     2
100
AcDbLine
 10
-264.7500170187286
 20
-60.96916905063929
 30
0.0
 11
-264.7500170187286
 21
-70.17786089534061
 31
0.0
  0
LINE
  5
134
330
71
100
AcDbEntity
  8
1
  6
Continuous
 62
     2
100
AcDbLine
 10
-264.7500170187286
 20
-60.96916905063929
 30
0.0
 11
-413.2500170187277
 21
-60.96916905063929
 31
0.0
  0
LINE
  5
135
330
71
100
AcDbEntity
  8
1
  6
Continuous
 62
     2
100
AcDbLine
 10
-116.2500170187296
 20
-265.9691690506393
 30
0.0
 11
-116.2500170187296
 21
-215.9691690506392
 31
0.0
  0
LINE
  5
136
330
71
100
AcDbEntity
  8
1
  6
Continuous
 62
     2
100
AcDbLine
 10
-116.2500170187296
 20
-115.9691690506393
 30
0.0
 11
-116.2500170187296
 21
-60.96916905063929
 31
0.0
  0
LINE
  5
137
330
71
100
AcDbEntity
  8
1
  6
Continuous
 62
     6
100
AcDbLine
 10
-121.2500170187294
 20
-115.9691690506393
 30
0.0
 11
-121.2500170187296
 21
-80.9691690506393
 31
0.0
  0
LINE
  5
138
330
71
100
AcDbEntity
  8
1
  6
Continuous
 62
     2
100
AcDbLine
 10
-121.2500170187294
 20
-115.9691690506393
 30
0.0
 11
-116.2500170187296
 21
-115.9691690506393
 31
0.0
  0
LINE
  5
139
330
71
100
AcDbEntity
  8
1
  6
Continuous
 62
     2
100
AcDbLine
 10
-116.2500170187296
 20
-165.9691690506394
 30
0.0
 11
-116.2500170187296
 21
-115.9691690506393
 31
0.0
  0
LINE
  5
13A
330
71
100
AcDbEntity
  8
1
  6
Continuous
 62
     6
100
AcDbLine
 10
-121.2500170187282
 20
-165.9691690506394
 30
0.0
 11
-121.2500170187294
 21
-115.9691690506393
 31
0.0
  0
LINE
  5
13B
330
71
100
AcDbEntity
  8
1
  6
Continuous
 62
     2
100
AcDbLine
 10
-121.2500170187282
 20
-165.9691690506394
 30
0.0
 11
-116.2500170187296
 21
-165.9691690506394
 31
0.0
  0
LINE
  5
13C
330
71
100
AcDbEntity
  8
1
  6
Continuous
 62
     2
100
AcDbLine
 10
-116.2500170187296
 20
-215.9691690506392
 30
0.0
 11
-116.2500170187296
 21
-165.9691690506394
 31
0.0
  0
LINE
  5
13D
330
71
100
AcDbEntity
  8
1
  6
Continuous
 62
     6
100
AcDbLine
 10
-121.2500170187277
 20
-215.9691690506392
 30
0.0
 11
-121.2500170187282
 21
-165.9691690506394
 31
0.0
  0
LINE
  5
13E
330
71
100
AcDbEntity
  8
1
  6
Continuous
 62
     2
100
AcDbLine
 10
-121.2500170187277
 20
-215.9691690506392
 30
0.0
 11
-116.2500170187296
 21
-215.9691690506392
 31
0.0
  0
LINE
  5
13F
330
71
100
AcDbEntity
  8
1
  6
Continuous
 62
     6
100
AcDbLine
 10
-121.2500170187296
 20
-80.9691690506393
 30
0.0
 11
-408.2500170187277
 21
-80.9691690506393
 31
0.0
  0
LINE
  5
140
330
71
100
AcDbEntity
  8
1
  6
Continuous
 62
     2
100
AcDbLine
 10
-116.2500170187296
 20
-60.96916905063929
 30
0.0
 11
-264.7500170187286
 21
-60.96916905063929
 31
0.0
  0
LINE
  5
141
330
71
100
AcDbEntity
  8
1
  6
Continuous
 62
     6
100
AcDbLine
 10
-121.2500170187269
 20
-248.9691690506393
 30
0.0
 11
-121.2500170187277
 21
-215.9691690506392
 31
0.0
  0
LINE
  5
142
330
71
100
AcDbEntity
  8
1
  6
Continuous
 62
     2
100
AcDbLine
 10
-121.2500170187286
 20
-270.9691690506394
 30
0.0
 11
-164.7500170187286
 21
-270.9691690506394
 31
0.0
  0
LINE
  5
143
330
71
100
AcDbEntity
  8
1
  6
Continuous
 62
     2
100
AcDbLine
 10
-116.2500170187296
 20
-270.9691690506394
 30
0.0
 11
-121.2500170187286
 21
-270.9691690506394
 31
0.0
  0
LINE
  5
144
330
71
100
AcDbEntity
  8
1
  6
Continuous
 62
     2
100
AcDbLine
 10
-116.2500170187296
 20
-270.9691690506394
 30
0.0
 11
-116.2500170187296
 21
-265.9691690506393
 31
0.0
  0
LINE
  5
145
330
71
100
AcDbEntity
  8
1
  6
Continuous
 62
     6
100
AcDbLine
 10
-250.7948215454786
 20
-248.9691690506393
 30
0.0
 11
-214.3948215454787
 21
-248.9691690506393
 31
0.0
  0
LINE
  5
146
330
71
100
AcDbEntity
  8
1
  6
Continuous
 62
     2
100
AcDbLine
 10
-121.2500170187286
 20
-265.9691690506393
 30
0.0
 11
-121.2500170187286
 21
-270.9691690506394
 31
0.0
  0
LINE
  5
147
330
71
100
AcDbEntity
  8
1
  6
Continuous
 62
     2
100
AcDbLine
 10
-121.2500170187286
 20
-265.9691690506393
 30
0.0
 11
-116.2500170187296
 21
-265.9691690506393
 31
0.0
  0
LINE
  5
148
330
71
100
AcDbEntity
  8
1
  6
Continuous
 62
     6
100
AcDbLine
 10
-214.7500170187286
 20
-265.9691690506393
 30
0.0
 11
-232.5948215454786
 21
-265.9691690506393
 31
0.0
  0
LINE
  5
149
330
71
100
AcDbEntity
  8
1
  6
Continuous
 62
     6
100
AcDbLine
 10
-164.7500170187286
 20
-265.9691690506393
 30
0.0
 11
-121.2500170187286
 21
-265.9691690506393
 31
0.0
  0
LINE
  5
14A
330
71
100
AcDbEntity
  8
1
  6
Continuous
 62
     6
100
AcDbLine
 10
-314.7500170187288
 20
-265.9691690506393
 30
0.0
 11
-319.7948215454786
 21
-265.9691690506393
 31
0.0
  0
LINE
  5
14B
330
71
100
AcDbEntity
  8
1
  6
Continuous
 62
     6
100
AcDbLine
 10
-264.7500170187286
 20
-265.9691690506393
 30
0.0
 11
-250.7948215454786
 21
-265.9691690506394
 31
0.0
  0
LINE
  5
14C
102
{ACAD_REACTORS
330
236
330
237
102
}
330
71
100
AcDbEntity
  8
0
  6
Continuous
 62
     2
100
AcDbLine
 10
-243.2801956033318
 20
-253.8966542944272
 30
0.0
 11
-243.2801956033318
 21
-253.2911190059204
 31
0.0
  0
LINE
  5
14D
102
{ACAD_REACTORS
330
236
330
237
102
}
330
71
100
AcDbEntity
  8
0
  6
Continuous
 62
     2
100
AcDbLine
 10
-243.2801956033318
 20
-256.6967889010585
 30
0.0
 11
-243.2801956033318
 21
-256.1149374943634
 31
0.0
  0
LINE
  5
14E
102
{ACAD_REACTORS
330
238
330
239
102
}
330
71
100
AcDbEntity
  8
0
  6
Continuous
 62
     2
100
AcDbLine
 10
-220.6507091678526
 20
-256.4071248329355
 30
0.0
 11
-220.6507091678526
 21
-258.675669050623
 31
0.0
  0
LINE
  5
14F
102
{ACAD_REACTORS
330
238
330
239
102
}
330
71
100
AcDbEntity
  8
0
  6
Continuous
 62
     2
100
AcDbLine
 10
-222.0317629468402
 20
-255.6218595268124
 30
0.0
 11
-218.6468174282115
 21
-255.6218595268119
 31
0.0
  0
LINE
  5
150
102
{ACAD_REACTORS
330
238
330
239
102
}
330
71
100
AcDbEntity
  8
0
  6
Continuous
 62
     2
100
AcDbLine
 10
-218.6468174282115
 20
-256.4071248329355
 30
0.0
 11
-218.6468174282115
 21
-255.6218595268119
 31
0.0
  0
LINE
  5
151
102
{ACAD_REACTORS
330
238
330
239
102
}
330
71
100
AcDbEntity
  8
0
  6
Continuous
 62
     2
100
AcDbLine
 10
-219.4579164656849
 20
-256.4071248329355
 30
0.0
 11
-218.6468174282115
 21
-256.4071248329355
 31
0.0
  0
LINE
  5
152
102
{ACAD_REACTORS
330
238
330
239
102
}
330
71
100
AcDbEntity
  8
0
  6
Continuous
 62
     2
100
AcDbLine
 10
-219.4579164656849
 20
-258.675669050623
 30
0.0
 11
-219.4579164656849
 21
-256.4071248329355
 31
0.0
  0
LINE
  5
153
102
{ACAD_REACTORS
330
238
330
239
102
}
330
71
100
AcDbEntity
  8
0
  6
Continuous
 62
     2
100
AcDbLine
 10
-220.6507091678526
 20
-258.675669050623
 30
0.0
 11
-219.4579164656849
 21
-258.675669050623
 31
0.0
  0
LINE
  5
154
102
{ACAD_REACTORS
330
22E
330
22F
102
}
330
71
100
AcDbEntity
  8
0
  6
Continuous
 62
     2
100
AcDbLine
 10
-221.3473001059171
 20
-252.2626690506375
 30
0.0
 11
-222.7500243236664
 21
-252.2626690506375
 31
0.0
  0
LINE
  5
155
102
{ACAD_REACTORS
330
22E
330
22F
102
}
330
71
100
AcDbEntity
  8
0
  6
Continuous
 62
     2
100
AcDbLine
 10
-221.3473001059171
 20
-252.2626690506375
 30
0.0
 11
-220.7461325840253
 21
-252.942492372193
 31
0.0
  0
LINE
  5
156
102
{ACAD_REACTORS
330
22E
330
22F
102
}
330
71
100
AcDbEntity
  8
0
  6
Continuous
 62
     2
100
AcDbLine
 10
-220.7461325840253
 20
-252.942492372193
 30
0.0
 11
-220.1449650621325
 21
-252.2626690506375
 31
0.0
  0
LINE
  5
157
102
{ACAD_REACTORS
330
22E
330
22F
102
}
330
71
100
AcDbEntity
  8
0
  6
Continuous
 62
     2
100
AcDbLine
 10
-220.0447704751518
 20
-253.7356195806737
 30
0.0
 11
-218.7422408443853
 21
-252.2626690506375
 31
0.0
  0
LINE
  5
158
102
{ACAD_REACTORS
330
22E
330
22F
102
}
330
71
100
AcDbEntity
  8
0
  6
Continuous
 62
     2
100
AcDbLine
 10
-220.0447704751518
 20
-253.7356195806737
 30
0.0
 11
-218.6468174282115
 21
-255.3164785744487
 31
0.0
  0
LINE
  5
159
102
{ACAD_REACTORS
330
22E
330
22F
102
}
330
71
100
AcDbEntity
  8
0
  6
Continuous
 62
     2
100
AcDbLine
 10
-220.0495416459598
 20
-255.3164785744487
 30
0.0
 11
-218.6468174282115
 21
-255.3164785744487
 31
0.0
  0
LINE
  5
15A
102
{ACAD_REACTORS
330
22E
330
22F
102
}
330
71
100
AcDbEntity
  8
0
  6
Continuous
 62
     2
100
AcDbLine
 10
-220.7461325840253
 20
-254.528746789155
 30
0.0
 11
-220.0495416459598
 21
-255.3164785744487
 31
0.0
  0
LINE
  5
15B
102
{ACAD_REACTORS
330
22C
330
22D
102
}
330
71
100
AcDbEntity
  8
0
  6
Continuous
 62
     2
100
AcDbLine
 10
-224.205231420309
 20
-252.2626690506375
 30
0.0
 11
-222.9647270100561
 21
-252.2626690506375
 31
0.0
  0
LINE
  5
15C
102
{ACAD_REACTORS
330
22C
330
22D
102
}
330
71
100
AcDbEntity
  8
0
  6
Continuous
 62
     2
100
AcDbLine
 10
-222.9647270100561
 20
-252.2626690506375
 30
0.0
 11
-222.9647270100561
 21
-255.3164785744487
 31
0.0
  0
LINE
  5
15D
102
{ACAD_REACTORS
330
22C
330
22D
102
}
330
71
100
AcDbEntity
  8
0
  6
Continuous
 62
     2
100
AcDbLine
 10
-224.205231420309
 20
-255.3164785744487
 30
0.0
 11
-224.205231420309
 21
-252.2626690506375
 31
0.0
  0
LINE
  5
15E
102
{ACAD_REACTORS
330
22A
330
22B
102
}
330
71
100
AcDbEntity
  8
0
  6
Continuous
 62
     2
100
AcDbLine
 10
-225.6735415028466
 20
-257.4541452410985
 30
0.0
 11
-225.3733762656542
 21
-256.6863302751118
 31
0.0
  0
LINE
  5
15F
102
{ACAD_REACTORS
330
22A
330
22B
102
}
330
71
100
AcDbEntity
  8
0
  6
Continuous
 62
     2
100
AcDbLine
 10
-226.1510771074674
 20
-258.675669050623
 30
0.0
 11
-225.9395970539916
 21
-258.1347085064051
 31
0.0
  0
LINE
  5
160
102
{ACAD_REACTORS
330
22A
330
22B
102
}
330
71
100
AcDbEntity
  8
0
  6
Continuous
 62
     2
100
AcDbLine
 10
-225.9936284707811
 20
-255.6218595268119
 30
0.0
 11
-227.3915815177204
 21
-258.675669050623
 31
0.0
  0
LINE
  5
161
102
{ACAD_REACTORS
330
22A
330
22B
102
}
330
71
100
AcDbEntity
  8
0
  6
Continuous
 62
     2
100
AcDbLine
 10
-223.3551710135881
 20
-258.675669050623
 30
0.0
 11
-224.595675423842
 21
-258.675669050623
 31
0.0
  0
LINE
  5
162
102
{ACAD_REACTORS
330
22A
330
22B
102
}
330
71
100
AcDbEntity
  8
0
  6
Continuous
 62
     2
100
AcDbLine
 10
-225.9395970539916
 20
-258.1347085064051
 30
0.0
 11
-224.8071554773178
 21
-258.1347085064051
 31
0.0
  0
LINE
  5
163
102
{ACAD_REACTORS
330
228
330
229
102
}
330
71
100
AcDbEntity
  8
0
  6
Continuous
 62
     2
100
AcDbLine
 10
-229.5490936569026
 20
-256.4071248329355
 30
0.0
 11
-228.737994619428
 21
-256.4071248329355
 31
0.0
  0
LINE
  5
164
102
{ACAD_REACTORS
330
228
330
229
102
}
330
71
100
AcDbEntity
  8
0
  6
Continuous
 62
     2
100
AcDbLine
 10
-226.734102879789
 20
-255.6218595268119
 30
0.0
 11
-229.5490936569026
 21
-255.6218595268119
 31
0.0
  0
LINE
  5
165
102
{ACAD_REACTORS
330
228
330
229
102
}
330
71
100
AcDbEntity
  8
0
  6
Continuous
 62
     2
100
AcDbLine
 10
-226.734102879789
 20
-256.4071248329355
 30
0.0
 11
-226.734102879789
 21
-255.6218595268119
 31
0.0
  0
LINE
  5
166
102
{ACAD_REACTORS
330
228
330
229
102
}
330
71
100
AcDbEntity
  8
0
  6
Continuous
 62
     2
100
AcDbLine
 10
-227.5452019172615
 20
-256.4071248329355
 30
0.0
 11
-226.734102879789
 21
-256.4071248329355
 31
0.0
  0
LINE
  5
167
102
{ACAD_REACTORS
330
228
330
229
102
}
330
71
100
AcDbEntity
  8
0
  6
Continuous
 62
     2
100
AcDbLine
 10
-227.5452019172615
 20
-258.675669050623
 30
0.0
 11
-227.5452019172615
 21
-256.4071248329355
 31
0.0
  0
LINE
  5
168
102
{ACAD_REACTORS
330
226
330
227
102
}
330
71
100
AcDbEntity
  8
0
  6
Continuous
 62
     2
100
AcDbLine
 10
-226.8770870731635
 20
-255.3164785744487
 30
0.0
 11
-226.8770870731635
 21
-254.007703064244
 31
0.0
  0
LINE
  5
169
102
{ACAD_REACTORS
330
226
330
227
102
}
330
71
100
AcDbEntity
  8
0
  6
Continuous
 62
     2
100
AcDbLine
 10
-228.06987977533
 20
-252.2626690506375
 30
0.0
 11
-228.06987977533
 21
-255.3164785744487
 31
0.0
  0
LINE
  5
16A
102
{ACAD_REACTORS
330
226
330
227
102
}
330
71
100
AcDbEntity
  8
0
  6
Continuous
 62
     2
100
AcDbLine
 10
-226.8770870731635
 20
-252.2626690506375
 30
0.0
 11
-228.06987977533
 21
-252.2626690506375
 31
0.0
  0
LINE
  5
16B
102
{ACAD_REACTORS
330
226
330
227
102
}
330
71
100
AcDbEntity
  8
0
  6
Continuous
 62
     2
100
AcDbLine
 10
-225.6365826629095
 20
-252.2626690506375
 30
0.0
 11
-225.6365826629095
 21
-253.5714445608427
 31
0.0
  0
LINE
  5
16C
102
{ACAD_REACTORS
330
224
330
225
102
}
330
71
100
AcDbEntity
  8
0
  6
Continuous
 62
     2
100
AcDbLine
 10
-233.3183185957497
 20
-255.6218595268119
 30
0.0
 11
-233.3183185957497
 21
-258.675669050623
 31
0.0
  0
LINE
  5
16D
102
{ACAD_REACTORS
330
224
330
225
102
}
330
71
100
AcDbEntity
  8
0
  6
Continuous
 62
     2
100
AcDbLine
 10
-232.1255258935821
 20
-255.6218595268119
 30
0.0
 11
-233.3183185957497
 21
-255.6218595268119
 31
0.0
  0
LINE
  5
16E
102
{ACAD_REACTORS
330
224
330
225
102
}
330
71
100
AcDbEntity
  8
0
  6
Continuous
 62
     2
100
AcDbLine
 10
-230.8850214833292
 20
-258.675669050623
 30
0.0
 11
-229.6922287811628
 21
-258.675669050623
 31
0.0
  0
LINE
  5
16F
102
{ACAD_REACTORS
330
224
330
225
102
}
330
71
100
AcDbEntity
  8
0
  6
Continuous
 62
     2
100
AcDbLine
 10
-233.3183185957497
 20
-258.675669050623
 30
0.0
 11
-232.1255258935821
 21
-258.675669050623
 31
0.0
  0
LINE
  5
170
102
{ACAD_REACTORS
330
234
330
235
102
}
330
71
100
AcDbEntity
  8
0
  6
Continuous
 62
     2
100
AcDbLine
 10
-229.6443661421906
 20
-253.4405670098222
 30
0.0
 11
-229.6443661421906
 21
-252.9606826560805
 31
0.0
  0
LINE
  5
171
102
{ACAD_REACTORS
330
234
330
235
102
}
330
71
100
AcDbEntity
  8
0
  6
Continuous
 62
     2
100
AcDbLine
 10
-228.3084383157629
 20
-253.4405670098222
 30
0.0
 11
-229.6443661421906
 21
-253.4405670098222
 31
0.0
  0
LINE
  5
172
102
{ACAD_REACTORS
330
234
330
235
102
}
330
71
100
AcDbEntity
  8
0
  6
Continuous
 62
     2
100
AcDbLine
 10
-228.3084383157629
 20
-254.1385806152645
 30
0.0
 11
-228.3084383157629
 21
-253.4405670098222
 31
0.0
  0
LINE
  5
173
102
{ACAD_REACTORS
330
234
330
235
102
}
330
71
100
AcDbEntity
  8
0
  6
Continuous
 62
     2
100
AcDbLine
 10
-229.6443661421906
 20
-254.1385806152645
 30
0.0
 11
-228.3084383157629
 21
-254.1385806152645
 31
0.0
  0
LINE
  5
174
102
{ACAD_REACTORS
330
222
330
223
102
}
330
71
100
AcDbEntity
  8
0
  6
Continuous
 62
     2
100
AcDbLine
 10
-233.1273208325175
 20
-252.2626690506375
 30
0.0
 11
-233.1273208325175
 21
-255.3164785744487
 31
0.0
  0
LINE
  5
175
102
{ACAD_REACTORS
330
222
330
223
102
}
330
71
100
AcDbEntity
  8
0
  6
Continuous
 62
     2
100
AcDbLine
 10
-233.1273208325175
 20
-255.3164785744487
 30
0.0
 11
-234.3201135346839
 21
-255.3164785744487
 31
0.0
  0
LINE
  5
176
102
{ACAD_REACTORS
330
222
330
223
102
}
330
71
100
AcDbEntity
  8
0
  6
Continuous
 62
     2
100
AcDbLine
 10
-234.3201135346839
 20
-255.3164785744487
 30
0.0
 11
-234.3201135346839
 21
-254.1822064656049
 31
0.0
  0
LINE
  5
177
102
{ACAD_REACTORS
330
222
330
223
102
}
330
71
100
AcDbEntity
  8
0
  6
Continuous
 62
     2
100
AcDbLine
 10
-235.3697711125914
 20
-255.3164785744487
 30
0.0
 11
-236.562563814758
 21
-255.3164785744487
 31
0.0
  0
LINE
  5
178
102
{ACAD_REACTORS
330
222
330
223
102
}
330
71
100
AcDbEntity
  8
0
  6
Continuous
 62
     2
100
AcDbLine
 10
-236.562563814758
 20
-252.2626690506375
 30
0.0
 11
-235.3697711125914
 21
-252.2626690506375
 31
0.0
  0
LINE
  5
179
102
{ACAD_REACTORS
330
222
330
223
102
}
330
71
100
AcDbEntity
  8
0
  6
Continuous
 62
     2
100
AcDbLine
 10
-235.3697711125914
 20
-252.2626690506375
 30
0.0
 11
-235.3697711125914
 21
-253.3315023839721
 31
0.0
  0
LINE
  5
17A
102
{ACAD_REACTORS
330
222
330
223
102
}
330
71
100
AcDbEntity
  8
0
  6
Continuous
 62
     2
100
AcDbLine
 10
-235.3697711125914
 20
-253.3315023839721
 30
0.0
 11
-234.3201135346839
 21
-253.3315023839721
 31
0.0
  0
LINE
  5
17B
102
{ACAD_REACTORS
330
230
330
231
102
}
330
71
100
AcDbEntity
  8
0
  6
Continuous
 62
     2
100
AcDbLine
 10
-238.5187438463116
 20
-252.9257748960776
 30
0.0
 11
-238.2014487847697
 21
-252.9257748960776
 31
0.0
  0
LINE
  5
17C
102
{ACAD_REACTORS
330
230
330
231
102
}
330
71
100
AcDbEntity
  8
0
  6
Continuous
 62
     2
100
AcDbLine
 10
-238.5187438463116
 20
-253.6315025454198
 30
0.0
 11
-238.2014487847697
 21
-253.6315025454198
 31
0.0
  0
LINE
  5
17D
102
{ACAD_REACTORS
330
230
330
231
102
}
330
71
100
AcDbEntity
  8
0
  6
Continuous
 62
     2
100
AcDbLine
 10
-239.7592482565657
 20
-252.2626690506375
 30
0.0
 11
-239.7592482565657
 21
-255.3164785744487
 31
0.0
  0
LINE
  5
17E
102
{ACAD_REACTORS
330
230
330
231
102
}
330
71
100
AcDbEntity
  8
0
  6
Continuous
 62
     2
100
AcDbLine
 10
-239.7592482565657
 20
-252.2626690506375
 30
0.0
 11
-237.7599762585313
 21
-252.2626690506375
 31
0.0
  0
LINE
  5
17F
102
{ACAD_REACTORS
330
230
330
231
102
}
330
71
100
AcDbEntity
  8
0
  6
Continuous
 62
     2
100
AcDbLine
 10
-238.5187438463116
 20
-254.3734003333049
 30
0.0
 11
-237.7599762585313
 21
-254.3734003333049
 31
0.0
  0
LINE
  5
180
102
{ACAD_REACTORS
330
236
330
237
102
}
330
71
100
AcDbEntity
  8
0
  6
Continuous
 62
     2
100
AcDbLine
 10
-245.8557442898624
 20
-253.2909415292723
 30
0.0
 11
-245.8557442898624
 21
-257.6473965719894
 31
0.0
  0
LINE
  5
181
102
{ACAD_REACTORS
330
236
330
237
102
}
330
71
100
AcDbEntity
  8
0
  6
Continuous
 62
     2
100
AcDbLine
 10
-245.5400273667867
 20
-252.9752246061961
 30
0.0
 11
-244.0641941057771
 21
-252.9752246061961
 31
0.0
  0
LINE
  5
182
102
{ACAD_REACTORS
330
236
330
237
102
}
330
71
100
AcDbEntity
  8
0
  6
Continuous
 62
     2
100
AcDbLine
 10
-243.7484771827005
 20
-253.8949661483328
 30
0.0
 11
-243.7484771827005
 21
-253.2909415292723
 31
0.0
  0
LINE
  5
183
102
{ACAD_REACTORS
330
236
330
237
102
}
330
71
100
AcDbEntity
  8
0
  6
Continuous
 62
     2
100
AcDbLine
 10
-243.7484771827005
 20
-257.6473965719894
 30
0.0
 11
-243.7484771827005
 21
-256.1166256404578
 31
0.0
  0
LINE
  5
184
102
{ACAD_REACTORS
330
236
330
237
102
}
330
71
100
AcDbEntity
  8
0
  6
Continuous
 62
     2
100
AcDbLine
 10
-240.6606099528164
 20
-258.675669050623
 30
0.0
 11
-246.1339220435332
 21
-258.675669050623
 31
0.0
  0
LINE
  5
185
102
{ACAD_REACTORS
330
236
330
237
102
}
330
71
100
AcDbEntity
  8
0
  6
Continuous
 62
     2
100
AcDbLine
 10
-240.2363653374325
 20
-252.6869136660395
 30
0.0
 11
-240.2363653374325
 21
-258.2514244352397
 31
0.0
  0
LINE
  5
186
102
{ACAD_REACTORS
330
236
330
237
102
}
330
71
100
AcDbEntity
  8
0
  6
Continuous
 62
     2
100
AcDbLine
 10
-246.1339220435332
 20
-252.2626690506557
 30
0.0
 11
-240.6606099528164
 21
-252.2626690506557
 31
0.0
  0
LINE
  5
187
102
{ACAD_REACTORS
330
236
330
237
102
}
330
71
100
AcDbEntity
  8
0
  6
Continuous
 62
     2
100
AcDbLine
 10
-246.558166658916
 20
-252.6869136660395
 30
0.0
 11
-246.558166658916
 21
-258.2514244352397
 31
0.0
  0
LINE
  5
188
102
{ACAD_REACTORS
330
236
330
237
102
}
330
71
100
AcDbEntity
  8
0
  6
Continuous
 62
     2
100
AcDbLine
 10
-244.0641941057771
 20
-257.9631134950661
 30
0.0
 11
-245.5400273667867
 21
-257.9631134950661
 31
0.0
  0
LINE
  5
189
102
{ACAD_REACTORS
330
230
330
231
102
}
330
71
100
AcDbEntity
  8
0
  6
Continuous
 62
     2
100
AcDbLine
 10
-238.5187438463116
 20
-255.3164785744487
 30
0.0
 11
-238.5187438463116
 21
-254.3734003333049
 31
0.0
  0
LINE
  5
18A
102
{ACAD_REACTORS
330
230
330
231
102
}
330
71
100
AcDbEntity
  8
0
  6
Continuous
 62
     2
100
AcDbLine
 10
-239.7592482565657
 20
-255.3164785744487
 30
0.0
 11
-238.5187438463116
 21
-255.3164785744487
 31
0.0
  0
LINE
  5
18B
102
{ACAD_REACTORS
330
230
330
231
102
}
330
71
100
AcDbEntity
  8
0
  6
Continuous
 62
     2
100
AcDbLine
 10
-238.5187438463116
 20
-253.6315025454198
 30
0.0
 11
-238.5187438463116
 21
-252.9257748960776
 31
0.0
  0
LINE
  5
18C
102
{ACAD_REACTORS
330
222
330
223
102
}
330
71
100
AcDbEntity
  8
0
  6
Continuous
 62
     2
100
AcDbLine
 10
-236.562563814758
 20
-252.2626690506375
 30
0.0
 11
-236.562563814758
 21
-255.3164785744487
 31
0.0
  0
LINE
  5
18D
102
{ACAD_REACTORS
330
222
330
223
102
}
330
71
100
AcDbEntity
  8
0
  6
Continuous
 62
     2
100
AcDbLine
 10
-235.3697711125914
 20
-254.1822064656049
 30
0.0
 11
-235.3697711125914
 21
-255.3164785744487
 31
0.0
  0
LINE
  5
18E
102
{ACAD_REACTORS
330
222
330
223
102
}
330
71
100
AcDbEntity
  8
0
  6
Continuous
 62
     2
100
AcDbLine
 10
-234.3201135346839
 20
-254.1822064656049
 30
0.0
 11
-235.3697711125914
 21
-254.1822064656049
 31
0.0
  0
LINE
  5
18F
102
{ACAD_REACTORS
330
222
330
223
102
}
330
71
100
AcDbEntity
  8
0
  6
Continuous
 62
     2
100
AcDbLine
 10
-234.3201135346839
 20
-252.2626690506375
 30
0.0
 11
-233.1273208325175
 21
-252.2626690506375
 31
0.0
  0
LINE
  5
190
102
{ACAD_REACTORS
330
222
330
223
102
}
330
71
100
AcDbEntity
  8
0
  6
Continuous
 62
     2
100
AcDbLine
 10
-234.3201135346839
 20
-253.3315023839721
 30
0.0
 11
-234.3201135346839
 21
-252.2626690506375
 31
0.0
  0
LINE
  5
191
102
{ACAD_REACTORS
330
234
330
235
102
}
330
71
100
AcDbEntity
  8
0
  6
Continuous
 62
     2
100
AcDbLine
 10
-228.3084383157629
 20
-252.9606826560805
 30
0.0
 11
-228.3084383157629
 21
-252.2626690506375
 31
0.0
  0
LINE
  5
192
102
{ACAD_REACTORS
330
234
330
235
102
}
330
71
100
AcDbEntity
  8
0
  6
Continuous
 62
     2
100
AcDbLine
 10
-231.4587580395439
 20
-252.2626690506375
 30
0.0
 11
-228.3084383157629
 21
-252.2626690506375
 31
0.0
  0
LINE
  5
193
102
{ACAD_REACTORS
330
234
330
235
102
}
330
71
100
AcDbEntity
  8
0
  6
Continuous
 62
     2
100
AcDbLine
 10
-231.4587580395439
 20
-255.3164785744487
 30
0.0
 11
-228.3084383157629
 21
-255.3164785744487
 31
0.0
  0
LINE
  5
194
102
{ACAD_REACTORS
330
234
330
235
102
}
330
71
100
AcDbEntity
  8
0
  6
Continuous
 62
     2
100
AcDbLine
 10
-228.3084383157629
 20
-255.3164785744487
 30
0.0
 11
-228.3084383157629
 21
-254.6184649690062
 31
0.0
  0
LINE
  5
195
102
{ACAD_REACTORS
330
234
330
235
102
}
330
71
100
AcDbEntity
  8
0
  6
Continuous
 62
     2
100
AcDbLine
 10
-228.3084383157629
 20
-254.6184649690062
 30
0.0
 11
-229.6443661421906
 21
-254.6184649690062
 31
0.0
  0
LINE
  5
196
102
{ACAD_REACTORS
330
234
330
235
102
}
330
71
100
AcDbEntity
  8
0
  6
Continuous
 62
     2
100
AcDbLine
 10
-229.6443661421906
 20
-254.6184649690062
 30
0.0
 11
-229.6443661421906
 21
-254.1385806152645
 31
0.0
  0
LINE
  5
197
102
{ACAD_REACTORS
330
234
330
235
102
}
330
71
100
AcDbEntity
  8
0
  6
Continuous
 62
     2
100
AcDbLine
 10
-229.6443661421906
 20
-252.9606826560805
 30
0.0
 11
-228.3084383157629
 21
-252.9606826560805
 31
0.0
  0
LINE
  5
198
102
{ACAD_REACTORS
330
224
330
225
102
}
330
71
100
AcDbEntity
  8
0
  6
Continuous
 62
     2
100
AcDbLine
 10
-232.1255258935821
 20
-258.675669050623
 30
0.0
 11
-232.1255258935821
 21
-257.3668935404184
 31
0.0
  0
LINE
  5
199
102
{ACAD_REACTORS
330
224
330
225
102
}
330
71
100
AcDbEntity
  8
0
  6
Continuous
 62
     2
100
AcDbLine
 10
-232.1255258935821
 20
-257.3668935404184
 30
0.0
 11
-230.8850214833292
 21
-258.675669050623
 31
0.0
  0
LINE
  5
19A
102
{ACAD_REACTORS
330
224
330
225
102
}
330
71
100
AcDbEntity
  8
0
  6
Continuous
 62
     2
100
AcDbLine
 10
-229.6922287811628
 20
-258.675669050623
 30
0.0
 11
-229.6922287811628
 21
-255.6218595268119
 31
0.0
  0
LINE
  5
19B
102
{ACAD_REACTORS
330
224
330
225
102
}
330
71
100
AcDbEntity
  8
0
  6
Continuous
 62
     2
100
AcDbLine
 10
-229.6922287811628
 20
-255.6218595268119
 30
0.0
 11
-230.8850214833292
 21
-255.6218595268119
 31
0.0
  0
LINE
  5
19C
102
{ACAD_REACTORS
330
224
330
225
102
}
330
71
100
AcDbEntity
  8
0
  6
Continuous
 62
     2
100
AcDbLine
 10
-230.8850214833292
 20
-255.6218595268119
 30
0.0
 11
-230.8850214833292
 21
-256.930635037017
 31
0.0
  0
LINE
  5
19D
102
{ACAD_REACTORS
330
224
330
225
102
}
330
71
100
AcDbEntity
  8
0
  6
Continuous
 62
     2
100
AcDbLine
 10
-230.8850214833292
 20
-256.930635037017
 30
0.0
 11
-232.1255258935821
 21
-255.6218595268119
 31
0.0
  0
LINE
  5
19E
102
{ACAD_REACTORS
330
226
330
227
102
}
330
71
100
AcDbEntity
  8
0
  6
Continuous
 62
     2
100
AcDbLine
 10
-226.8770870731635
 20
-254.007703064244
 30
0.0
 11
-225.6365826629095
 21
-255.3164785744487
 31
0.0
  0
LINE
  5
19F
102
{ACAD_REACTORS
330
226
330
227
102
}
330
71
100
AcDbEntity
  8
0
  6
Continuous
 62
     2
100
AcDbLine
 10
-225.6365826629095
 20
-255.3164785744487
 30
0.0
 11
-224.4437899607429
 21
-255.3164785744487
 31
0.0
  0
LINE
  5
1A0
102
{ACAD_REACTORS
330
226
330
227
102
}
330
71
100
AcDbEntity
  8
0
  6
Continuous
 62
     2
100
AcDbLine
 10
-224.4437899607429
 20
-255.3164785744487
 30
0.0
 11
-224.4437899607429
 21
-252.2626690506375
 31
0.0
  0
LINE
  5
1A1
102
{ACAD_REACTORS
330
226
330
227
102
}
330
71
100
AcDbEntity
  8
0
  6
Continuous
 62
     2
100
AcDbLine
 10
-224.4437899607429
 20
-252.2626690506375
 30
0.0
 11
-225.6365826629095
 21
-252.2626690506375
 31
0.0
  0
LINE
  5
1A2
102
{ACAD_REACTORS
330
226
330
227
102
}
330
71
100
AcDbEntity
  8
0
  6
Continuous
 62
     2
100
AcDbLine
 10
-225.6365826629095
 20
-253.5714445608427
 30
0.0
 11
-226.8770870731635
 21
-252.2626690506375
 31
0.0
  0
LINE
  5
1A3
102
{ACAD_REACTORS
330
226
330
227
102
}
330
71
100
AcDbEntity
  8
0
  6
Continuous
 62
     2
100
AcDbLine
 10
-228.06987977533
 20
-255.3164785744487
 30
0.0
 11
-226.8770870731635
 21
-255.3164785744487
 31
0.0
  0
LINE
  5
1A4
102
{ACAD_REACTORS
330
228
330
229
102
}
330
71
100
AcDbEntity
  8
0
  6
Continuous
 62
     2
100
AcDbLine
 10
-229.5490936569026
 20
-255.6218595268119
 30
0.0
 11
-229.5490936569026
 21
-256.4071248329355
 31
0.0
  0
LINE
  5
1A5
102
{ACAD_REACTORS
330
228
330
229
102
}
330
71
100
AcDbEntity
  8
0
  6
Continuous
 62
     2
100
AcDbLine
 10
-228.737994619428
 20
-256.4071248329355
 30
0.0
 11
-228.737994619428
 21
-258.675669050623
 31
0.0
  0
LINE
  5
1A6
102
{ACAD_REACTORS
330
228
330
229
102
}
330
71
100
AcDbEntity
  8
0
  6
Continuous
 62
     2
100
AcDbLine
 10
-228.737994619428
 20
-258.675669050623
 30
0.0
 11
-227.5452019172615
 21
-258.675669050623
 31
0.0
  0
LINE
  5
1A7
102
{ACAD_REACTORS
330
22A
330
22B
102
}
330
71
100
AcDbEntity
  8
0
  6
Continuous
 62
     2
100
AcDbLine
 10
-224.595675423842
 20
-258.675669050623
 30
0.0
 11
-224.8071554773178
 21
-258.1347085064051
 31
0.0
  0
LINE
  5
1A8
102
{ACAD_REACTORS
330
22A
330
22B
102
}
330
71
100
AcDbEntity
  8
0
  6
Continuous
 62
     2
100
AcDbLine
 10
-224.7531240605284
 20
-255.6218595268119
 30
0.0
 11
-223.3551710135881
 21
-258.675669050623
 31
0.0
  0
LINE
  5
1A9
102
{ACAD_REACTORS
330
22A
330
22B
102
}
330
71
100
AcDbEntity
  8
0
  6
Continuous
 62
     2
100
AcDbLine
 10
-225.9936284707811
 20
-255.6218595268119
 30
0.0
 11
-224.7531240605284
 21
-255.6218595268119
 31
0.0
  0
LINE
  5
1AA
102
{ACAD_REACTORS
330
22A
330
22B
102
}
330
71
100
AcDbEntity
  8
0
  6
Continuous
 62
     2
100
AcDbLine
 10
-227.3915815177204
 20
-258.675669050623
 30
0.0
 11
-226.1510771074674
 21
-258.675669050623
 31
0.0
  0
LINE
  5
1AB
102
{ACAD_REACTORS
330
22A
330
22B
102
}
330
71
100
AcDbEntity
  8
0
  6
Continuous
 62
     2
100
AcDbLine
 10
-225.6735415028466
 20
-257.4541452410985
 30
0.0
 11
-225.0732110284641
 21
-257.4541452410985
 31
0.0
  0
LINE
  5
1AC
102
{ACAD_REACTORS
330
22A
330
22B
102
}
330
71
100
AcDbEntity
  8
0
  6
Continuous
 62
     2
100
AcDbLine
 10
-225.0732110284641
 20
-257.4541452410985
 30
0.0
 11
-225.3733762656542
 21
-256.6863302751118
 31
0.0
  0
LINE
  5
1AD
102
{ACAD_REACTORS
330
22C
330
22D
102
}
330
71
100
AcDbEntity
  8
0
  6
Continuous
 62
     2
100
AcDbLine
 10
-222.9647270100561
 20
-255.3164785744487
 30
0.0
 11
-224.205231420309
 21
-255.3164785744487
 31
0.0
  0
LINE
  5
1AE
102
{ACAD_REACTORS
330
22E
330
22F
102
}
330
71
100
AcDbEntity
  8
0
  6
Continuous
 62
     2
100
AcDbLine
 10
-221.442723522091
 20
-255.3164785744487
 30
0.0
 11
-222.8454477398392
 21
-255.3164785744487
 31
0.0
  0
LINE
  5
1AF
102
{ACAD_REACTORS
330
22E
330
22F
102
}
330
71
100
AcDbEntity
  8
0
  6
Continuous
 62
     2
100
AcDbLine
 10
-221.442723522091
 20
-255.3164785744487
 30
0.0
 11
-220.7461325840253
 21
-254.528746789155
 31
0.0
  0
LINE
  5
1B0
102
{ACAD_REACTORS
330
22E
330
22F
102
}
330
71
100
AcDbEntity
  8
0
  6
Continuous
 62
     2
100
AcDbLine
 10
-220.1449650621325
 20
-252.2626690506375
 30
0.0
 11
-218.7422408443853
 21
-252.2626690506375
 31
0.0
  0
LINE
  5
1B1
102
{ACAD_REACTORS
330
22E
330
22F
102
}
330
71
100
AcDbEntity
  8
0
  6
Continuous
 62
     2
100
AcDbLine
 10
-222.7500243236664
 20
-252.2626690506375
 30
0.0
 11
-221.4474946928989
 21
-253.7356195806737
 31
0.0
  0
LINE
  5
1B2
102
{ACAD_REACTORS
330
22E
330
22F
102
}
330
71
100
AcDbEntity
  8
0
  6
Continuous
 62
     2
100
AcDbLine
 10
-222.8454477398392
 20
-255.3164785744487
 30
0.0
 11
-221.4474946928989
 21
-253.7356195806737
 31
0.0
  0
LINE
  5
1B3
102
{ACAD_REACTORS
330
238
330
239
102
}
330
71
100
AcDbEntity
  8
0
  6
Continuous
 62
     2
100
AcDbLine
 10
-220.9846911244593
 20
-257.6286486424594
 30
0.0
 11
-220.9846911244593
 21
-258.5011656492627
 31
0.0
  0
LINE
  5
1B4
102
{ACAD_REACTORS
330
238
330
239
102
}
330
71
100
AcDbEntity
  8
0
  6
Continuous
 62
     2
100
AcDbLine
 10
-221.7543484674207
 20
-256.4071248329355
 30
0.0
 11
-220.6507091678526
 21
-256.4071248329355
 31
0.0
  0
LINE
  5
1B5
102
{ACAD_REACTORS
330
23A
330
23B
102
}
330
71
100
AcDbEntity
  8
0
  6
Continuous
 62
     2
100
AcDbLine
 10
-237.0873926037112
 20
-257.6286486424589
 30
0.0
 11
-237.0873926037112
 21
-258.5011656492621
 31
0.0
  0
LINE
  5
1B6
102
{ACAD_REACTORS
330
23A
330
23B
102
}
330
71
100
AcDbEntity
  8
0
  6
Continuous
 62
     2
100
AcDbLine
 10
-237.0873926037112
 20
-256.668879934976
 30
0.0
 11
-237.0873926037112
 21
-255.7963629281727
 31
0.0
  0
LINE
  5
1B7
330
71
100
AcDbEntity
  8
1
  6
Continuous
 62
     7
100
AcDbLine
 10
-121.2500170187273
 20
-257.4691690506393
 30
0.0
 11
-214.3948215454787
 21
-257.4691690506393
 31
0.0
  0
LINE
  5
1B8
330
71
100
AcDbEntity
  8
1
  6
Continuous
 62
     6
100
AcDbLine
 10
-319.7948215454786
 20
-265.9691690506393
 30
0.0
 11
-364.7500170187286
 21
-265.9691690506393
 31
0.0
  0
LINE
  5
1B9
330
71
100
AcDbEntity
  8
1
  6
Continuous
 62
     7
100
AcDbLine
 10
-130.1684253004061
 20
-240.4691690506393
 30
0.0
 11
-130.1684253004061
 21
-248.9691690506393
 31
0.0
  0
LINE
  5
1BA
330
71
100
AcDbEntity
  8
1
  6
Continuous
 62
     7
100
AcDbLine
 10
-156.6684253004057
 20
-240.4691690506393
 30
0.0
 11
-156.6684253004057
 21
-248.9691690506393
 31
0.0
  0
LINE
  5
1BB
330
71
100
AcDbEntity
  8
1
  6
Continuous
 62
     7
100
AcDbLine
 10
-214.3948215454787
 20
-248.9691690506393
 30
0.0
 11
-214.3948215454787
 21
-240.4691690506393
 31
0.0
  0
LINE
  5
1BC
330
71
100
AcDbEntity
  8
1
  6
Continuous
 62
     7
100
AcDbLine
 10
-250.7948215454786
 20
-248.9691690506393
 30
0.0
 11
-250.7948215454786
 21
-240.4691690506393
 31
0.0
  0
LINE
  5
1BD
330
71
100
AcDbEntity
  8
1
  6
Continuous
 62
     6
100
AcDbLine
 10
-214.3948215454787
 20
-248.9691690506393
 30
0.0
 11
-121.2500170187269
 21
-248.9691690506393
 31
0.0
  0
LINE
  5
1BE
330
71
100
AcDbEntity
  8
1
  6
Continuous
 62
     7
100
AcDbLine
 10
-186.4948215454786
 20
-257.4691690506394
 30
0.0
 11
-186.4948215454786
 21
-248.9691690506393
 31
0.0
  0
LINE
  5
1BF
330
71
100
AcDbEntity
  8
1
  6
PHANTOM
 62
     2
100
AcDbLine
 10
-235.308166658916
 20
-244.8441690506394
 30
0.0
 11
-240.808166658916
 21
-244.8441690506394
 31
0.0
  0
LINE
  5
1C0
330
71
100
AcDbEntity
  8
1
  6
PHANTOM
 62
     2
100
AcDbLine
 10
-238.058166658916
 20
-242.0941690506394
 30
0.0
 11
-238.058166658916
 21
-247.5941690506394
 31
0.0
  0
LINE
  5
1C1
330
71
100
AcDbEntity
  8
1
  6
DOT_CENTER
 62
     2
100
AcDbLine
 10
-246.808166658916
 20
-244.8441690506394
 30
0.0
 11
-241.308166658916
 21
-244.8441690506394
 31
0.0
  0
ARC
  5
1C2
102
{ACAD_REACTORS
330
23A
330
23B
102
}
330
71
100
AcDbEntity
  8
0
  6
Continuous
 62
     2
100
AcDbCircle
 10
-238.423320520829
 20
-260.4614452339736
 30
0.0
 40
4.852596863498095
100
AcDbArc
 50
74.02000874164747
 51
84.84185523037475
  0
ARC
  5
1C3
102
{ACAD_REACTORS
330
23A
330
23B
102
}
330
71
100
AcDbEntity
  8
0
  6
Continuous
 62
     2
100
AcDbCircle
 10
-237.8472799120753
 20
-257.3056848780893
 30
0.0
 40
0.9059297849853858
100
AcDbArc
 50
71.5519238818529
 51
113.372277888129
  0
ARC
  5
1C4
102
{ACAD_REACTORS
330
23A
330
23B
102
}
330
71
100
AcDbEntity
  8
0
  6
Continuous
 62
     2
100
AcDbCircle
 10
-238.0037199447773
 20
-257.3538357180562
 30
0.0
 40
0.5115800601948034
100
AcDbArc
 50
208.5214732576956
 51
246.6277221118245
  0
ARC
  5
1C5
102
{ACAD_REACTORS
330
23A
330
23B
102
}
330
71
100
AcDbEntity
  8
0
  6
Continuous
 62
     2
100
AcDbCircle
 10
-237.8472799120753
 20
-256.9918436993462
 30
0.0
 40
0.9059297849849192
100
AcDbArc
 50
246.627722111871
 51
288.4480761181596
  0
ARC
  5
1C6
102
{ACAD_REACTORS
330
23A
330
23B
102
}
330
71
100
AcDbEntity
  8
0
  6
Continuous
 62
     2
100
AcDbCircle
 10
-238.2654476457361
 20
-255.738297923309
 30
0.0
 40
2.227384008972773
100
AcDbArc
 50
288.4480761181333
 51
301.9309089499589
  0
ARC
  5
1C7
102
{ACAD_REACTORS
330
236
330
237
102
}
330
71
100
AcDbEntity
  8
0
  6
Continuous
 62
     2
100
AcDbCircle
 10
-243.4905213783429
 20
-255.005795894395
 30
0.0
 40
0.9118481501444847
100
AcDbArc
 50
295.3740086781757
 51
64.62599132180748
  0
ARC
  5
1C8
102
{ACAD_REACTORS
330
236
330
237
102
}
330
71
100
AcDbEntity
  8
0
  6
Continuous
 62
     2
100
AcDbCircle
 10
-242.964478680255
 20
-253.2911190059204
 30
0.0
 40
0.3157169230760711
100
AcDbArc
 50
90.18896704254594
 51
180.0
  0
ARC
  5
1C9
102
{ACAD_REACTORS
330
238
330
239
102
}
330
71
100
AcDbEntity
  8
0
  6
Continuous
 62
     2
100
AcDbCircle
 10
-221.7543484674207
 20
-257.3616478397616
 30
0.0
 40
0.9545230068260935
100
AcDbArc
 50
90.0
 51
109.337143219432
  0
ARC
  5
1CA
102
{ACAD_REACTORS
330
238
330
239
102
}
330
71
100
AcDbEntity
  8
0
  6
Continuous
 62
     2
100
AcDbCircle
 10
-221.523661207443
 20
-257.1487642887177
 30
0.0
 40
0.9410597353348789
100
AcDbArc
 50
151.478526742364
 51
208.5214732576695
  0
ARC
  5
1CB
102
{ACAD_REACTORS
330
238
330
239
102
}
330
71
100
AcDbEntity
  8
0
  6
Continuous
 62
     2
100
AcDbCircle
 10
-221.7445784328213
 20
-256.9918436993462
 30
0.0
 40
0.9059297849852801
100
AcDbArc
 50
246.6277221118183
 51
288.4480761180817
  0
ARC
  5
1CC
102
{ACAD_REACTORS
330
238
330
239
102
}
330
71
100
AcDbEntity
  8
0
  6
Continuous
 62
     2
100
AcDbCircle
 10
-222.1627461664832
 20
-255.7382979233096
 30
0.0
 40
2.227384008972746
100
AcDbArc
 50
288.4480761181335
 51
301.9309089499397
  0
ARC
  5
1CD
102
{ACAD_REACTORS
330
238
330
239
102
}
330
71
100
AcDbEntity
  8
0
  6
Continuous
 62
     2
100
AcDbCircle
 10
-222.320619041576
 20
-253.8360833434613
 30
0.0
 40
4.852596863498853
100
AcDbArc
 50
275.1581447696363
 51
285.9799912583387
  0
ARC
  5
1CE
102
{ACAD_REACTORS
330
238
330
239
102
}
330
71
100
AcDbEntity
  8
0
  6
Continuous
 62
     2
100
AcDbCircle
 10
-222.0317629468402
 20
-257.0359739266829
 30
0.0
 40
1.639695123940448
100
AcDbArc
 50
195.0618917771012
 51
275.1581447696762
  0
ARC
  5
1CF
102
{ACAD_REACTORS
330
230
330
231
102
}
330
71
100
AcDbEntity
  8
0
  6
Continuous
 62
     2
100
AcDbCircle
 10
-237.7599762585313
 20
-253.3180346919712
 30
0.0
 40
1.05536564133368
100
AcDbArc
 50
270.0
 51
90.0
  0
ARC
  5
1D0
102
{ACAD_REACTORS
330
236
330
237
102
}
330
71
100
AcDbEntity
  8
0
  6
Continuous
 62
     2
100
AcDbCircle
 10
-245.5400273667867
 20
-257.6473965719894
 30
0.0
 40
0.315716923075712
100
AcDbArc
 50
180.0
 51
270.0
  0
ARC
  5
1D1
102
{ACAD_REACTORS
330
236
330
237
102
}
330
71
100
AcDbEntity
  8
0
  6
Continuous
 62
     2
100
AcDbCircle
 10
-244.0641941057771
 20
-253.2909415292723
 30
0.0
 40
0.315716923076593
100
AcDbArc
 50
0.0
 51
90.0
  0
ARC
  5
1D2
102
{ACAD_REACTORS
330
236
330
237
102
}
330
71
100
AcDbEntity
  8
0
  6
Continuous
 62
     2
100
AcDbCircle
 10
-244.0641941057771
 20
-253.8949661483328
 30
0.0
 40
0.315716923076146
100
AcDbArc
 50
295.1944106485375
 51
0.0
  0
ARC
  5
1D3
102
{ACAD_REACTORS
330
236
330
237
102
}
330
71
100
AcDbEntity
  8
0
  6
Continuous
 62
     2
100
AcDbCircle
 10
-244.0641941057771
 20
-257.6473965719894
 30
0.0
 40
0.3157169230767067
100
AcDbArc
 50
270.0
 51
0.0
  0
ARC
  5
1D4
102
{ACAD_REACTORS
330
236
330
237
102
}
330
71
100
AcDbEntity
  8
0
  6
Continuous
 62
     2
100
AcDbCircle
 10
-246.1339220435332
 20
-252.6869136660395
 30
0.0
 40
0.4242446153837989
100
AcDbArc
 50
90.0
 51
180.0
  0
ARC
  5
1D5
102
{ACAD_REACTORS
330
236
330
237
102
}
330
71
100
AcDbEntity
  8
0
  6
Continuous
 62
     2
100
AcDbCircle
 10
-240.6606099528164
 20
-252.6869136660395
 30
0.0
 40
0.4242446153839126
100
AcDbArc
 50
0.0
 51
90.0
  0
ARC
  5
1D6
102
{ACAD_REACTORS
330
236
330
237
102
}
330
71
100
AcDbEntity
  8
0
  6
Continuous
 62
     2
100
AcDbCircle
 10
-240.6606099528164
 20
-258.2514244352397
 30
0.0
 40
0.4242446153833157
100
AcDbArc
 50
270.0
 51
0.0
  0
ARC
  5
1D7
102
{ACAD_REACTORS
330
234
330
235
102
}
330
71
100
AcDbEntity
  8
0
  6
Continuous
 62
     2
100
AcDbCircle
 10
-231.4422260657249
 20
-253.7895738125434
 30
0.0
 40
0.7717997786796198
100
AcDbArc
 50
321.8795802028454
 51
38.12041979716123
  0
ARC
  5
1D8
102
{ACAD_REACTORS
330
234
330
235
102
}
330
71
100
AcDbEntity
  8
0
  6
Continuous
 62
     2
100
AcDbCircle
 10
-231.2424860293787
 20
-253.9463049906638
 30
0.0
 40
0.5179085730134372
100
AcDbArc
 50
218.1204197971511
 51
321.8795802028566
  0
ARC
  5
1D9
102
{ACAD_REACTORS
330
232
330
233
102
}
330
71
100
AcDbEntity
  8
0
  6
Continuous
 62
     2
100
AcDbCircle
 10
-234.9224936183389
 20
-257.1487642887177
 30
0.0
 40
1.458034083652028
100
AcDbArc
 50
297.5481481757005
 51
62.45185182429896
  0
ARC
  5
1DA
102
{ACAD_REACTORS
330
232
330
233
102
}
330
71
100
AcDbEntity
  8
0
  6
Continuous
 62
     2
100
AcDbCircle
 10
-235.4843734020055
 20
-257.1487642887177
 30
0.0
 40
1.45803408365149
100
AcDbArc
 50
117.5481481756624
 51
242.451851824338
  0
ARC
  5
1DB
102
{ACAD_REACTORS
330
232
330
233
102
}
330
71
100
AcDbEntity
  8
0
  6
Continuous
 62
     2
100
AcDbCircle
 10
-235.2034335101722
 20
-257.6873392990205
 30
0.0
 40
2.065479772208568
100
AcDbArc
 50
62.45185182430637
 51
117.5481481756664
  0
ARC
  5
1DC
102
{ACAD_REACTORS
330
232
330
233
102
}
330
71
100
AcDbEntity
  8
0
  6
Continuous
 62
     2
100
AcDbCircle
 10
-235.2034335101722
 20
-256.6101892784144
 30
0.0
 40
2.065479772208534
100
AcDbArc
 50
242.4518518243405
 51
297.5481481756867
  0
ARC
  5
1DD
102
{ACAD_REACTORS
330
234
330
235
102
}
330
71
100
AcDbEntity
  8
0
  6
Continuous
 62
     2
100
AcDbCircle
 10
-231.0427459930324
 20
-253.7895738125434
 30
0.0
 40
0.77179977867969
100
AcDbArc
 50
141.8795802028388
 51
218.1204197971546
  0
ARC
  5
1DE
102
{ACAD_REACTORS
330
234
330
235
102
}
330
71
100
AcDbEntity
  8
0
  6
Continuous
 62
     2
100
AcDbCircle
 10
-231.2424860293787
 20
-253.6328426344229
 30
0.0
 40
0.5179085730135266
100
AcDbArc
 50
38.12041979714334
 51
141.8795802028489
  0
ARC
  5
1DF
102
{ACAD_REACTORS
330
236
330
237
102
}
330
71
100
AcDbEntity
  8
0
  6
Continuous
 62
     2
100
AcDbCircle
 10
-246.1339220435332
 20
-258.2514244352397
 30
0.0
 40
0.4242446153828041
100
AcDbArc
 50
180.0
 51
270.0
  0
ARC
  5
1E0
102
{ACAD_REACTORS
330
236
330
237
102
}
330
71
100
AcDbEntity
  8
0
  6
Continuous
 62
     2
100
AcDbCircle
 10
-244.0641941057771
 20
-256.1166256404578
 30
0.0
 40
0.315716923076593
100
AcDbArc
 50
0.0
 51
64.80558935146249
  0
ARC
  5
1E1
102
{ACAD_REACTORS
330
236
330
237
102
}
330
71
100
AcDbEntity
  8
0
  6
Continuous
 62
     2
100
AcDbCircle
 10
-243.5416096582021
 20
-255.005795894395
 30
0.0
 40
0.9118975235575889
100
AcDbArc
 50
115.194410648529
 51
244.8055893514878
  0
ARC
  5
1E2
102
{ACAD_REACTORS
330
236
330
237
102
}
330
71
100
AcDbEntity
  8
0
  6
Continuous
 62
     2
100
AcDbCircle
 10
-245.5400273667867
 20
-253.2909415292723
 30
0.0
 40
0.3157169230761951
100
AcDbArc
 50
90.0
 51
180.0
  0
ARC
  5
1E3
102
{ACAD_REACTORS
330
230
330
231
102
}
330
71
100
AcDbEntity
  8
0
  6
Continuous
 62
     2
100
AcDbCircle
 10
-238.2014487847697
 20
-253.2786387207487
 30
0.0
 40
0.3528638246711182
100
AcDbArc
 50
270.0
 51
90.0
  0
ARC
  5
1E4
102
{ACAD_REACTORS
330
234
330
235
102
}
330
71
100
AcDbEntity
  8
0
  6
Continuous
 62
     2
100
AcDbCircle
 10
-231.4587580395439
 20
-253.7895738125434
 30
0.0
 40
1.526904761905911
100
AcDbArc
 50
90.0
 51
270.0
  0
ARC
  5
1E5
102
{ACAD_REACTORS
330
238
330
239
102
}
330
71
100
AcDbEntity
  8
0
  6
Continuous
 62
     2
100
AcDbCircle
 10
-222.0317629468402
 20
-257.2615546507526
 30
0.0
 40
1.639695123940214
100
AcDbArc
 50
90.0
 51
164.938108222895
  0
ARC
  5
1E6
102
{ACAD_REACTORS
330
238
330
239
102
}
330
71
100
AcDbEntity
  8
0
  6
Continuous
 62
     2
100
AcDbCircle
 10
-222.4508907903018
 20
-257.1487642887177
 30
0.0
 40
1.205656168393002
100
AcDbArc
 50
164.9381082229028
 51
195.0618917770972
  0
ARC
  5
1E7
102
{ACAD_REACTORS
330
238
330
239
102
}
330
71
100
AcDbEntity
  8
0
  6
Continuous
 62
     2
100
AcDbCircle
 10
-221.9010184655244
 20
-257.3538357180562
 30
0.0
 40
0.5115800601960215
100
AcDbArc
 50
208.5214732576866
 51
246.6277221118449
  0
ARC
  5
1E8
102
{ACAD_REACTORS
330
238
330
239
102
}
330
71
100
AcDbEntity
  8
0
  6
Continuous
 62
     2
100
AcDbCircle
 10
-221.9010184655244
 20
-256.9436928593787
 30
0.0
 40
0.5115800601944143
100
AcDbArc
 50
109.3371432194853
 51
151.4785267424253
  0
ARC
  5
1E9
102
{ACAD_REACTORS
330
236
330
237
102
}
330
71
100
AcDbEntity
  8
0
  6
Continuous
 62
     2
100
AcDbCircle
 10
-242.964478680255
 20
-256.6967889010585
 30
0.0
 40
0.315716923076792
100
AcDbArc
 50
180.0
 51
269.8110329574542
  0
ARC
  5
1EA
102
{ACAD_REACTORS
330
236
330
237
102
}
330
71
100
AcDbEntity
  8
0
  6
Continuous
 62
     2
100
AcDbCircle
 10
-242.958862544945
 20
-254.9939539534895
 30
0.0
 40
2.018561131933266
100
AcDbArc
 50
269.8110329575858
 51
90.18896704241416
  0
ARC
  5
1EB
102
{ACAD_REACTORS
330
236
330
237
102
}
330
71
100
AcDbEntity
  8
0
  6
Continuous
 62
     2
100
AcDbCircle
 10
-242.964478680255
 20
-253.8966542944272
 30
0.0
 40
0.315716923076792
100
AcDbArc
 50
180.0
 51
244.6259913216459
  0
ARC
  5
1EC
102
{ACAD_REACTORS
330
236
330
237
102
}
330
71
100
AcDbEntity
  8
0
  6
Continuous
 62
     2
100
AcDbCircle
 10
-242.964478680255
 20
-256.1149374943634
 30
0.0
 40
0.3157169230765071
100
AcDbArc
 50
115.3740086783541
 51
180.0
  0
ARC
  5
1ED
102
{ACAD_REACTORS
330
23A
330
23B
102
}
330
71
100
AcDbEntity
  8
0
  6
Continuous
 62
     2
100
AcDbCircle
 10
-238.1344644260931
 20
-257.2615546507526
 30
0.0
 40
1.639695123940509
100
AcDbArc
 50
84.84185523036136
 51
164.9381082228864
  0
ARC
  5
1EE
102
{ACAD_REACTORS
330
23A
330
23B
102
}
330
71
100
AcDbEntity
  8
0
  6
Continuous
 62
     2
100
AcDbCircle
 10
-238.5535922695559
 20
-257.1487642887177
 30
0.0
 40
1.205656168390944
100
AcDbArc
 50
164.9381082228765
 51
195.0618917770948
  0
ARC
  5
1EF
102
{ACAD_REACTORS
330
23A
330
23B
102
}
330
71
100
AcDbEntity
  8
0
  6
Continuous
 62
     2
100
AcDbCircle
 10
-238.1344644260931
 20
-257.0359739266829
 30
0.0
 40
1.63969512393938
100
AcDbArc
 50
195.0618917770886
 51
275.1581447696406
  0
ARC
  5
1F0
102
{ACAD_REACTORS
330
23A
330
23B
102
}
330
71
100
AcDbEntity
  8
0
  6
Continuous
 62
     2
100
AcDbCircle
 10
-238.423320520829
 20
-253.8360833434613
 30
0.0
 40
4.852596863498141
100
AcDbArc
 50
275.1581447696253
 51
285.979991258353
  0
ARC
  5
1F1
102
{ACAD_REACTORS
330
23A
330
23B
102
}
330
71
100
AcDbEntity
  8
0
  6
Continuous
 62
     2
100
AcDbCircle
 10
-237.626362686697
 20
-257.1487642887177
 30
0.0
 40
0.9410597353332295
100
AcDbArc
 50
151.4785267422661
 51
208.5214732577066
  0
ARC
  5
1F2
102
{ACAD_REACTORS
330
23A
330
23B
102
}
330
71
100
AcDbEntity
  8
0
  6
Continuous
 62
     2
100
AcDbCircle
 10
-238.0037199447773
 20
-256.9436928593787
 30
0.0
 40
0.511580060194863
100
AcDbArc
 50
113.3722778882033
 51
151.4785267423044
  0
ARC
  5
1F3
102
{ACAD_REACTORS
330
23A
330
23B
102
}
330
71
100
AcDbEntity
  8
0
  6
Continuous
 62
     2
100
AcDbCircle
 10
-238.2654476457361
 20
-258.5592306541259
 30
0.0
 40
2.227384008973453
100
AcDbArc
 50
58.06909105004033
 51
71.55192388186676
  0
ARC
  5
1F4
102
{ACAD_REACTORS
330
232
330
233
102
}
330
71
100
AcDbEntity
  8
0
  6
Continuous
 62
     2
100
AcDbCircle
 10
-235.2034335101722
 20
-256.9920331105972
 30
0.0
 40
0.5179085730133349
100
AcDbArc
 50
38.12041979715197
 51
141.8795802028538
  0
ARC
  5
1F5
102
{ACAD_REACTORS
330
232
330
233
102
}
330
71
100
AcDbEntity
  8
0
  6
Continuous
 62
     2
100
AcDbCircle
 10
-235.0036934738261
 20
-257.1487642887177
 30
0.0
 40
0.7717997786794808
100
AcDbArc
 50
141.8795802028346
 51
218.1204197971687
  0
ARC
  5
1F6
102
{ACAD_REACTORS
330
232
330
233
102
}
330
71
100
AcDbEntity
  8
0
  6
Continuous
 62
     2
100
AcDbCircle
 10
-235.2034335101722
 20
-257.3054954668377
 30
0.0
 40
0.5179085730137178
100
AcDbArc
 50
218.1204197971907
 51
321.8795802028035
  0
ARC
  5
1F7
102
{ACAD_REACTORS
330
232
330
233
102
}
330
71
100
AcDbEntity
  8
0
  6
Continuous
 62
     2
100
AcDbCircle
 10
-235.4031735465186
 20
-257.1487642887177
 30
0.0
 40
0.7717997786796724
100
AcDbArc
 50
321.8795802028404
 51
38.12041979715625
  0
CIRCLE
  5
1F8
330
71
100
AcDbEntity
  8
1
  6
Continuous
 62
     2
100
AcDbCircle
 10
-238.058166658916
 20
-244.8441690506394
 30
0.0
 40
2.5
  0
CIRCLE
  5
1F9
330
71
100
AcDbEntity
  8
1
  6
Continuous
 62
     2
100
AcDbCircle
 10
-238.058166658916
 20
-244.8441690506394
 30
0.0
 40
1.249999999999915
  0
CIRCLE
  5
1FA
102
{ACAD_REACTORS
330
236
330
237
102
}
330
71
100
AcDbEntity
  8
0
  6
Continuous
 62
     2
100
AcDbCircle
 10
-243.5143363930157
 20
-255.005795894395
 30
0.0
 40
0.4709789327785074
  0
MTEXT
  5
1FB
330
71
100
AcDbEntity
  8
1
 62
     3
100
AcDbMText
 10
-408.2449492326568
 20
-79.1778608953405
 30
0.0
 40
1.8
 41
0.0
 71
     7
 72
     1
  3
Weitergabe sowie Vervielf\U+00e4ltigung dieses Dokuments, Verwertung und \PMitteilung seines Inhalts sind verboten, soweit nicht ausdr\U+00fccklich gestattet. \PZuwiderhandlungen verpflichten zu Schadenersatz. Alle Rechte f\U+00fcr den Fall\Pder Pat
  1
ent-, Gebrauchsmuster- oder Designeintragung vorbehalten.
  7
CONVERTER_11
 73
     1
 44
0.99639855942377
  0
MTEXT
  5
1FC
330
71
100
AcDbEntity
  8
1
 62
     3
100
AcDbMText
 10
-225.3918393938687
 20
-79.1778608953405
 30
0.0
 40
1.8
 41
0.0
 71
     7
 72
     1
  3
Transfer or duplication of this document as well as the utilisation or\Pcommunication of its content are not permitted unless express consent\Pis granted. Violations give rise to claims for damages. All rights reserved\Pin case of patent, utility mo
  1
del or design patent registrations.
  7
CONVERTER_11
 73
     1
 44
0.99639855942377
  0
TEXT
  5
1FD
330
71
100
AcDbEntity
  8
1
 62
     2
100
AcDbText
 10
-231.5948215454788
 20
-264.7281862656309
 30
0.0
 40
1.8
  1
of
 41
0.9
  7
CONVERTER_11
100
AcDbText
  0
TEXT
  5
1FE
330
71
100
AcDbEntity
  8
1
 62
     2
100
AcDbText
 10
-249.7948215454786
 20
-264.7281862656309
 30
0.0
 40
1.8
  1
page
 41
0.9
  7
CONVERTER_11
100
AcDbText
  0
TEXT
  5
1FF
330
71
100
AcDbEntity
  8
1
 62
     2
100
AcDbText
 10
-241.1485565751366
 20
-264.7684177044413
 30
0.0
 40
1.8
  1
1
 41
0.9
  7
CONVERTER_11
100
AcDbText
  0
TEXT
  5
200
330
71
100
AcDbEntity
  8
1
 62
     2
100
AcDbText
 10
-226.3595127356651
 20
-264.7191690506394
 30
0.0
 40
1.8
  1
1
 41
0.9
  7
CONVERTER_11
100
AcDbText
  0
MTEXT
  5
202
330
71
100
AcDbEntity
  8
1
 62
     7
100
AcDbMText
 10
-167.8224192821031
 20
-262.719169050639
 30
0.0
 40
3.0
 41
0.0
 71
     5
 72
     1
  1
ZB 6:UNBEDRUCKT
  7
CONVERTER_12
 73
     1
 44
1.20048019207683
  0
MTEXT
  5
203
330
71
100
AcDbEntity
  8
1
 62
     2
100
AcDbMText
 10
-213.3948215454787
 20
-258.4691690506393
 30
0.0
 40
1.8
 41
0.0
 71
     1
 72
     1
  1
description
  7
CONVERTER_11
 73
     1
 44
1.20048019207683
  0
MTEXT
  5
204
330
71
100
AcDbEntity
  8
1
 62
     3
100
AcDbMText
 10
-224.5948215454787
 20
-244.8441690506393
 30
0.0
 40
2.5
 41
0.0
 71
     5
 72
     1
  1
DIN A4
  7
CONVERTER_11
 73
     1
 44
1.20048019207683
  0
MTEXT
  5
205
330
71
100
AcDbEntity
  8
1
 62
     7
100
AcDbMText
 10
-410.7500170187277
 20
-243.4691690506393
 30
0.0
 40
3.5
 41
0.0
 71
     5
 72
     1
  1
D
  7
CONVERTER_11
 73
     1
 44
1.20048019207683
  0
MTEXT
  5
206
330
71
100
AcDbEntity
  8
1
 62
     7
100
AcDbMText
 10
-410.7500170187277
 20
-190.9691690506393
 30
0.0
 40
3.5
 41
0.0
 71
     5
 72
     1
  1
C
  7
CONVERTER_11
 73
     1
 44
1.20048019207683
  0
MTEXT
  5
207
330
71
100
AcDbEntity
  8
1
 62
     7
100
AcDbMText
 10
-410.7500170187277
 20
-140.9691690506393
 30
0.0
 40
3.5
 41
0.0
 71
     5
 72
     1
  1
B
  7
CONVERTER_11
 73
     1
 44
1.20048019207683
  0
MTEXT
  5
208
330
71
100
AcDbEntity
  8
1
 62
     7
100
AcDbMText
 10
-410.7500170187277
 20
-88.4691690506393
 30
0.0
 40
3.5
 41
0.0
 71
     5
 72
     1
  1
A
  7
CONVERTER_11
 73
     1
 44
1.20048019207683
  0
MTEXT
  5
209
330
71
100
AcDbEntity
  8
1
 62
     7
100
AcDbMText
 10
-140.5000170187294
 20
-268.4691690506394
 30
0.0
 40
3.5
 41
0.0
 71
     5
 72
     1
  1
6
  7
CONVERTER_11
 73
     1
 44
1.20048019207683
  0
MTEXT
  5
20A
330
71
100
AcDbEntity
  8
1
 62
     7
100
AcDbMText
 10
-189.7500170187286
 20
-268.4691690506394
 30
0.0
 40
3.5
 41
0.0
 71
     5
 72
     1
  1
5
  7
CONVERTER_11
 73
     1
 44
1.20048019207683
  0
MTEXT
  5
20B
330
71
100
AcDbEntity
  8
1
 62
     7
100
AcDbMText
 10
-239.7500170187287
 20
-268.4691690506394
 30
0.0
 40
3.5
 41
0.0
 71
     5
 72
     1
  1
4
  7
CONVERTER_11
 73
     1
 44
1.20048019207683
  0
MTEXT
  5
20C
330
71
100
AcDbEntity
  8
1
 62
     7
100
AcDbMText
 10
-289.7500170187286
 20
-268.4691690506394
 30
0.0
 40
3.5
 41
0.0
 71
     5
 72
     1
  1
3
  7
CONVERTER_11
 73
     1
 44
1.20048019207683
  0
MTEXT
  5
20D
330
71
100
AcDbEntity
  8
1
 62
     7
100
AcDbMText
 10
-339.7500170187286
 20
-268.4691690506394
 30
0.0
 40
3.5
 41
0.0
 71
     5
 72
     1
  1
2
  7
CONVERTER_11
 73
     1
 44
1.20048019207683
  0
MTEXT
  5
20E
330
71
100
AcDbEntity
  8
1
 62
     7
100
AcDbMText
 10
-389.0000170187282
 20
-268.4691690506394
 30
0.0
 40
3.5
 41
0.0
 71
     5
 72
     1
  1
1
  7
CONVERTER_11
 73
     1
 44
1.20048019207683
  0
MTEXT
  5
20F
330
71
100
AcDbEntity
  8
1
 62
     7
100
AcDbMText
 10
-118.7500170187296
 20
-243.4691690506393
 30
0.0
 40
3.5
 41
0.0
 71
     5
 72
     1
  1
D
  7
CONVERTER_11
 73
     1
 44
1.20048019207683
  0
MTEXT
  5
210
330
71
100
AcDbEntity
  8
1
 62
     7
100
AcDbMText
 10
-118.7500170187296
 20
-140.9691690506374
 30
0.0
 40
3.5
 41
0.0
 71
     5
 72
     1
  1
B
  7
CONVERTER_11
 73
     1
 44
1.20048019207683
  0
MTEXT
  5
211
330
71
100
AcDbEntity
  8
1
 62
     7
100
AcDbMText
 10
-118.7500170187296
 20
-88.4691690506393
 30
0.0
 40
3.5
 41
0.0
 71
     5
 72
     1
  1
A
  7
CONVERTER_11
 73
     1
 44
1.20048019207683
  0
MTEXT
  5
212
330
71
100
AcDbEntity
  8
1
 62
     7
100
AcDbMText
 10
-118.7500170187296
 20
-190.9691690506374
 30
0.0
 40
3.5
 41
0.0
 71
     5
 72
     1
  1
C
  7
CONVERTER_11
 73
     1
 44
1.20048019207683
  0
MTEXT
  5
213
330
71
100
AcDbEntity
  8
1
 62
     2
100
AcDbMText
 10
-285.2328362705261
 20
-253.2191690506394
 30
0.0
 40
2.0
 41
0.0
 71
     5
 72
     1
  1
General Information\P- Simplified representation\P- Document excluded from change process\P- Linear dimensions [mm]
  7
CONVERTER_11
 73
     1
 44
1.20048019207683
  0
TEXT
  5
214
330
71
100
AcDbEntity
  8
1
 62
     7
100
AcDbText
 10
-212.8948215454789
 20
-256.1691690506394
 30
0.0
 40
2.5
  1
1051003
 41
0.81
  7
CONVERTER_12
100
AcDbText
  0
MTEXT
  5
215
330
71
100
AcDbEntity
  8
1
 62
     2
100
AcDbMText
 10
-213.2948215454786
 20
-249.9691690506393
 30
0.0
 40
1.8
 41
0.0
 71
     1
 72
     1
  1
ident.-No.
  7
CONVERTER_11
 73
     1
 44
1.20048019207683
  0
MTEXT
  5
216
330
71
100
AcDbEntity
  8
1
 62
     2
100
AcDbMText
 10
-129.0684253004059
 20
-241.4691690506393
 30
0.0
 40
1.8
 41
0.0
 71
     1
 72
     1
  1
scale
  7
CONVERTER_11
 73
     1
 44
1.20048019207683
  0
MTEXT
  5
218
330
71
100
AcDbEntity
  8
1
 62
     3
100
AcDbMText
 10
-125.7092211595663
 20
-247.6691690506392
 30
0.0
 40
2.5
 41
0.0
 71
     8
 72
     1
  1
5:1
  7
CONVERTER_13
 73
     1
 44
1.32052821128451
  0
TEXT
  5
219
330
71
100
AcDbEntity
  8
1
 62
     7
100
AcDbText
 10
-213.2948215454786
 20
-247.6691690506394
 30
0.0
 40
2.5
  1
40204101
 41
0.81
  7
CONVERTER_12
100
AcDbText
  0
MTEXT
  5
21B
330
71
100
AcDbEntity
  8
1
 62
     2
100
AcDbMText
 10
-213.2948215454786
 20
-241.4691690506393
 30
0.0
 40
1.8
 41
0.0
 71
     1
 72
     1
  1
document-No. / RI
  7
CONVERTER_14
 73
     1
 44
1.32052821128451
  0
TEXT
  5
21C
330
71
100
AcDbEntity
  8
1
 62
     3
100
AcDbText
 10
-185.4948215454786
 20
-256.1691690506394
 30
0.0
 40
2.5
  1
TECDOC 2D_Productdrawing
 41
0.81
  7
CONVERTER_12
100
AcDbText
  0
MTEXT
  5
21D
330
71
100
AcDbEntity
  8
1
 62
     2
100
AcDbMText
 10
-185.4948215454786
 20
-249.9691690506394
 30
0.0
 40
1.8
 41
0.0
 71
     1
 72
     1
  1
document-type
  7
CONVERTER_11
 73
     1
 44
1.20048019207683
  0
MTEXT
  5
21E
330
71
100
AcDbEntity
  8
1
 62
     2
100
AcDbMText
 10
-155.6684253004057
 20
-241.4691690506394
 30
0.0
 40
1.8
 41
0.0
 71
     1
 72
     1
  1
date
  7
CONVERTER_11
 73
     1
 44
1.32052821128451
  0
TEXT
  5
21F
330
71
100
AcDbEntity
  8
1
 62
     3
100
AcDbText
 10
-155.6684253004057
 20
-247.6691690506394
 30
0.0
 40
2.5
  1
28.03.2018
 41
0.81
  7
CONVERTER_12
100
AcDbText
  0
TEXT
  5
220
330
71
100
AcDbEntity
  8
1
 62
     7
100
AcDbText
 10
-193.2649093264228
 20
-247.6691690506394
 30
0.0
 40
2.5
  1
03
 41
0.81
  7
CONVERTER_12
100
AcDbText
  0
TEXT
  5
221
330
71
100
AcDbEntity
  8
1
 62
     7
100
AcDbText
 10
-195.4212738234648
 20
-247.6691690506394
 30
0.0
 40
2.5
  1
/
 41
0.9
  7
CONVERTER_11
100
AcDbText
  0
HATCH
  5
222
330
71
100
AcDbEntity
  8
1
  6
Continuous
 62
     2
100
AcDbHatch
 10
0.0
 20
0.0
 30
0.0
210
0.0
220
0.0
230
1.0
  2
_USER
 70
     0
 71
     1
 91
        1
 92
        1
 93
       12
 72
     1
 10
-233.1273208325175
 20
-255.3164785744487
 11
-234.3201135346839
 21
-255.3164785744487
 72
     1
 10
-234.3201135346839
 20
-255.3164785744487
 11
-234.3201135346839
 21
-254.1822064656049
 72
     1
 10
-234.3201135346839
 20
-254.1822064656049
 11
-235.3697711125914
 21
-254.1822064656049
 72
     1
 10
-235.3697711125914
 20
-254.1822064656049
 11
-235.3697711125914
 21
-255.3164785744487
 72
     1
 10
-235.3697711125914
 20
-255.3164785744487
 11
-236.562563814758
 21
-255.3164785744487
 72
     1
 10
-236.562563814758
 20
-255.3164785744487
 11
-236.562563814758
 21
-252.2626690506375
 72
     1
 10
-236.562563814758
 20
-252.2626690506375
 11
-235.3697711125914
 21
-252.2626690506375
 72
     1
 10
-235.3697711125914
 20
-252.2626690506375
 11
-235.3697711125914
 21
-253.3315023839721
 72
     1
 10
-235.3697711125914
 20
-253.3315023839721
 11
-234.3201135346839
 21
-253.3315023839721
 72
     1
 10
-234.3201135346839
 20
-253.3315023839721
 11
-234.3201135346839
 21
-252.2626690506375
 72
     1
 10
-234.3201135346839
 20
-252.2626690506375
 11
-233.1273208325175
 21
-252.2626690506375
 72
     1
 10
-233.1273208325175
 20
-252.2626690506375
 11
-233.1273208325175
 21
-255.3164785744487
 97
       12
330
18F
330
190
330
17A
330
179
330
178
330
18C
330
177
330
18D
330
18E
330
176
330
175
330
174
 75
     1
 76
     0
 52
45.0
 41
0.1
 77
     0
 78
     1
 53
45.0
 43
0.0
 44
0.0
 45
-0.0707106781186548
 46
0.0707106781186548
 79
     0
 98
        1
 10
0.0
 20
0.0
  0
HATCH
  5
223
330
71
100
AcDbEntity
  8
1
  6
Continuous
 62
     2
100
AcDbHatch
 10
0.0
 20
0.0
 30
0.0
210
0.0
220
0.0
230
1.0
  2
_USER
 70
     0
 71
     1
 91
        1
 92
        1
 93
       12
 72
     1
 10
-233.1273208325175
 20
-255.3164785744487
 11
-234.3201135346839
 21
-255.3164785744487
 72
     1
 10
-234.3201135346839
 20
-255.3164785744487
 11
-234.3201135346839
 21
-254.1822064656049
 72
     1
 10
-234.3201135346839
 20
-254.1822064656049
 11
-235.3697711125914
 21
-254.1822064656049
 72
     1
 10
-235.3697711125914
 20
-254.1822064656049
 11
-235.3697711125914
 21
-255.3164785744487
 72
     1
 10
-235.3697711125914
 20
-255.3164785744487
 11
-236.562563814758
 21
-255.3164785744487
 72
     1
 10
-236.562563814758
 20
-255.3164785744487
 11
-236.562563814758
 21
-252.2626690506375
 72
     1
 10
-236.562563814758
 20
-252.2626690506375
 11
-235.3697711125914
 21
-252.2626690506375
 72
     1
 10
-235.3697711125914
 20
-252.2626690506375
 11
-235.3697711125914
 21
-253.3315023839721
 72
     1
 10
-235.3697711125914
 20
-253.3315023839721
 11
-234.3201135346839
 21
-253.3315023839721
 72
     1
 10
-234.3201135346839
 20
-253.3315023839721
 11
-234.3201135346839
 21
-252.2626690506375
 72
     1
 10
-234.3201135346839
 20
-252.2626690506375
 11
-233.1273208325175
 21
-252.2626690506375
 72
     1
 10
-233.1273208325175
 20
-252.2626690506375
 11
-233.1273208325175
 21
-255.3164785744487
 97
       12
330
18F
330
190
330
17A
330
179
330
178
330
18C
330
177
330
18D
330
18E
330
176
330
175
330
174
 75
     1
 76
     0
 52
45.0
 41
0.1
 77
     0
 78
     1
 53
45.0
 43
0.0
 44
0.0
 45
-0.0707106781186548
 46
0.0707106781186548
 79
     0
 98
        1
 10
0.0
 20
0.0
  0
HATCH
  5
224
330
71
100
AcDbEntity
  8
1
  6
Continuous
 62
     2
100
AcDbHatch
 10
0.0
 20
0.0
 30
0.0
210
0.0
220
0.0
230
1.0
  2
_USER
 70
     0
 71
     1
 91
        1
 92
        1
 93
       10
 72
     1
 10
-230.8850214833292
 20
-256.930635037017
 11
-232.1255258935821
 21
-255.6218595268119
 72
     1
 10
-232.1255258935821
 20
-255.6218595268119
 11
-233.3183185957497
 21
-255.6218595268119
 72
     1
 10
-233.3183185957497
 20
-255.6218595268119
 11
-233.3183185957497
 21
-258.675669050623
 72
     1
 10
-233.3183185957497
 20
-258.675669050623
 11
-232.1255258935821
 21
-258.675669050623
 72
     1
 10
-232.1255258935821
 20
-258.675669050623
 11
-232.1255258935821
 21
-257.3668935404184
 72
     1
 10
-232.1255258935821
 20
-257.3668935404184
 11
-230.8850214833292
 21
-258.675669050623
 72
     1
 10
-230.8850214833292
 20
-258.675669050623
 11
-229.6922287811628
 21
-258.675669050623
 72
     1
 10
-229.6922287811628
 20
-258.675669050623
 11
-229.6922287811628
 21
-255.6218595268119
 72
     1
 10
-229.6922287811628
 20
-255.6218595268119
 11
-230.8850214833292
 21
-255.6218595268119
 72
     1
 10
-230.8850214833292
 20
-255.6218595268119
 11
-230.8850214833292
 21
-256.930635037017
 97
       10
330
19D
330
16D
330
16C
330
16F
330
198
330
199
330
16E
330
19A
330
19B
330
19C
 75
     1
 76
     0
 52
45.0
 41
0.1
 77
     0
 78
     1
 53
45.0
 43
0.0
 44
0.0
 45
-0.0707106781186548
 46
0.0707106781186548
 79
     0
 98
        1
 10
0.0
 20
0.0
  0
HATCH
  5
225
330
71
100
AcDbEntity
  8
1
  6
Continuous
 62
     2
100
AcDbHatch
 10
0.0
 20
0.0
 30
0.0
210
0.0
220
0.0
230
1.0
  2
_USER
 70
     0
 71
     1
 91
        1
 92
        1
 93
       10
 72
     1
 10
-230.8850214833292
 20
-256.930635037017
 11
-232.1255258935821
 21
-255.6218595268119
 72
     1
 10
-232.1255258935821
 20
-255.6218595268119
 11
-233.3183185957497
 21
-255.6218595268119
 72
     1
 10
-233.3183185957497
 20
-255.6218595268119
 11
-233.3183185957497
 21
-258.675669050623
 72
     1
 10
-233.3183185957497
 20
-258.675669050623
 11
-232.1255258935821
 21
-258.675669050623
 72
     1
 10
-232.1255258935821
 20
-258.675669050623
 11
-232.1255258935821
 21
-257.3668935404184
 72
     1
 10
-232.1255258935821
 20
-257.3668935404184
 11
-230.8850214833292
 21
-258.675669050623
 72
     1
 10
-230.8850214833292
 20
-258.675669050623
 11
-229.6922287811628
 21
-258.675669050623
 72
     1
 10
-229.6922287811628
 20
-258.675669050623
 11
-229.6922287811628
 21
-255.6218595268119
 72
     1
 10
-229.6922287811628
 20
-255.6218595268119
 11
-230.8850214833292
 21
-255.6218595268119
 72
     1
 10
-230.8850214833292
 20
-255.6218595268119
 11
-230.8850214833292
 21
-256.930635037017
 97
       10
330
19D
330
16D
330
16C
330
16F
330
198
330
199
330
16E
330
19A
330
19B
330
19C
 75
     1
 76
     0
 52
45.0
 41
0.1
 77
     0
 78
     1
 53
45.0
 43
0.0
 44
0.0
 45
-0.0707106781186548
 46
0.0707106781186548
 79
     0
 98
        1
 10
0.0
 20
0.0
  0
HATCH
  5
226
330
71
100
AcDbEntity
  8
1
  6
Continuous
 62
     2
100
AcDbHatch
 10
0.0
 20
0.0
 30
0.0
210
0.0
220
0.0
230
1.0
  2
_USER
 70
     0
 71
     1
 91
        1
 92
        1
 93
       10
 72
     1
 10
-225.6365826629095
 20
-253.5714445608427
 11
-226.8770870731635
 21
-252.2626690506375
 72
     1
 10
-226.8770870731635
 20
-252.2626690506375
 11
-228.06987977533
 21
-252.2626690506375
 72
     1
 10
-228.06987977533
 20
-252.2626690506375
 11
-228.06987977533
 21
-255.3164785744487
 72
     1
 10
-228.06987977533
 20
-255.3164785744487
 11
-226.8770870731635
 21
-255.3164785744487
 72
     1
 10
-226.8770870731635
 20
-255.3164785744487
 11
-226.8770870731635
 21
-254.007703064244
 72
     1
 10
-226.8770870731635
 20
-254.007703064244
 11
-225.6365826629095
 21
-255.3164785744487
 72
     1
 10
-225.6365826629095
 20
-255.3164785744487
 11
-224.4437899607429
 21
-255.3164785744487
 72
     1
 10
-224.4437899607429
 20
-255.3164785744487
 11
-224.4437899607429
 21
-252.2626690506375
 72
     1
 10
-224.4437899607429
 20
-252.2626690506375
 11
-225.6365826629095
 21
-252.2626690506375
 72
     1
 10
-225.6365826629095
 20
-252.2626690506375
 11
-225.6365826629095
 21
-253.5714445608427
 97
       10
330
1A2
330
16A
330
169
330
1A3
330
168
330
19E
330
19F
330
1A0
330
1A1
330
16B
 75
     1
 76
     0
 52
45.0
 41
0.1
 77
     0
 78
     1
 53
45.0
 43
0.0
 44
0.0
 45
-0.0707106781186548
 46
0.0707106781186548
 79
     0
 98
        1
 10
0.0
 20
0.0
  0
HATCH
  5
227
330
71
100
AcDbEntity
  8
1
  6
Continuous
 62
     2
100
AcDbHatch
 10
0.0
 20
0.0
 30
0.0
210
0.0
220
0.0
230
1.0
  2
_USER
 70
     0
 71
     1
 91
        1
 92
        1
 93
       10
 72
     1
 10
-225.6365826629095
 20
-253.5714445608427
 11
-226.8770870731635
 21
-252.2626690506375
 72
     1
 10
-226.8770870731635
 20
-252.2626690506375
 11
-228.06987977533
 21
-252.2626690506375
 72
     1
 10
-228.06987977533
 20
-252.2626690506375
 11
-228.06987977533
 21
-255.3164785744487
 72
     1
 10
-228.06987977533
 20
-255.3164785744487
 11
-226.8770870731635
 21
-255.3164785744487
 72
     1
 10
-226.8770870731635
 20
-255.3164785744487
 11
-226.8770870731635
 21
-254.007703064244
 72
     1
 10
-226.8770870731635
 20
-254.007703064244
 11
-225.6365826629095
 21
-255.3164785744487
 72
     1
 10
-225.6365826629095
 20
-255.3164785744487
 11
-224.4437899607429
 21
-255.3164785744487
 72
     1
 10
-224.4437899607429
 20
-255.3164785744487
 11
-224.4437899607429
 21
-252.2626690506375
 72
     1
 10
-224.4437899607429
 20
-252.2626690506375
 11
-225.6365826629095
 21
-252.2626690506375
 72
     1
 10
-225.6365826629095
 20
-252.2626690506375
 11
-225.6365826629095
 21
-253.5714445608427
 97
       10
330
1A2
330
16A
330
169
330
1A3
330
168
330
19E
330
19F
330
1A0
330
1A1
330
16B
 75
     1
 76
     0
 52
45.0
 41
0.1
 77
     0
 78
     1
 53
45.0
 43
0.0
 44
0.0
 45
-0.0707106781186548
 46
0.0707106781186548
 79
     0
 98
        1
 10
0.0
 20
0.0
  0
HATCH
  5
228
330
71
100
AcDbEntity
  8
1
  6
Continuous
 62
     2
100
AcDbHatch
 10
0.0
 20
0.0
 30
0.0
210
0.0
220
0.0
230
1.0
  2
_USER
 70
     0
 71
     1
 91
        1
 92
        1
 93
        8
 72
     1
 10
-226.734102879789
 20
-255.6218595268119
 11
-229.5490936569026
 21
-255.6218595268119
 72
     1
 10
-229.5490936569026
 20
-255.6218595268119
 11
-229.5490936569026
 21
-256.4071248329355
 72
     1
 10
-229.5490936569026
 20
-256.4071248329355
 11
-228.737994619428
 21
-256.4071248329355
 72
     1
 10
-228.737994619428
 20
-256.4071248329355
 11
-228.737994619428
 21
-258.675669050623
 72
     1
 10
-228.737994619428
 20
-258.675669050623
 11
-227.5452019172615
 21
-258.675669050623
 72
     1
 10
-227.5452019172615
 20
-258.675669050623
 11
-227.5452019172615
 21
-256.4071248329355
 72
     1
 10
-227.5452019172615
 20
-256.4071248329355
 11
-226.734102879789
 21
-256.4071248329355
 72
     1
 10
-226.734102879789
 20
-256.4071248329355
 11
-226.734102879789
 21
-255.6218595268119
 97
        8
330
164
330
1A4
330
163
330
1A5
330
1A6
330
167
330
166
330
165
 75
     1
 76
     0
 52
45.0
 41
0.1
 77
     0
 78
     1
 53
45.0
 43
0.0
 44
0.0
 45
-0.0707106781186548
 46
0.0707106781186548
 79
     0
 98
        1
 10
0.0
 20
0.0
  0
HATCH
  5
229
330
71
100
AcDbEntity
  8
1
  6
Continuous
 62
     2
100
AcDbHatch
 10
0.0
 20
0.0
 30
0.0
210
0.0
220
0.0
230
1.0
  2
_USER
 70
     0
 71
     1
 91
        1
 92
        1
 93
        8
 72
     1
 10
-226.734102879789
 20
-255.6218595268119
 11
-229.5490936569026
 21
-255.6218595268119
 72
     1
 10
-229.5490936569026
 20
-255.6218595268119
 11
-229.5490936569026
 21
-256.4071248329355
 72
     1
 10
-229.5490936569026
 20
-256.4071248329355
 11
-228.737994619428
 21
-256.4071248329355
 72
     1
 10
-228.737994619428
 20
-256.4071248329355
 11
-228.737994619428
 21
-258.675669050623
 72
     1
 10
-228.737994619428
 20
-258.675669050623
 11
-227.5452019172615
 21
-258.675669050623
 72
     1
 10
-227.5452019172615
 20
-258.675669050623
 11
-227.5452019172615
 21
-256.4071248329355
 72
     1
 10
-227.5452019172615
 20
-256.4071248329355
 11
-226.734102879789
 21
-256.4071248329355
 72
     1
 10
-226.734102879789
 20
-256.4071248329355
 11
-226.734102879789
 21
-255.6218595268119
 97
        8
330
164
330
1A4
330
163
330
1A5
330
1A6
330
167
330
166
330
165
 75
     1
 76
     0
 52
45.0
 41
0.1
 77
     0
 78
     1
 53
45.0
 43
0.0
 44
0.0
 45
-0.0707106781186548
 46
0.0707106781186548
 79
     0
 98
        1
 10
0.0
 20
0.0
  0
HATCH
  5
22A
330
71
100
AcDbEntity
  8
1
  6
Continuous
 62
     2
100
AcDbHatch
 10
0.0
 20
0.0
 30
0.0
210
0.0
220
0.0
230
1.0
  2
_USER
 70
     0
 71
     1
 91
        2
 92
        1
 93
        8
 72
     1
 10
-224.595675423842
 20
-258.675669050623
 11
-224.8071554773178
 21
-258.1347085064051
 72
     1
 10
-224.8071554773178
 20
-258.1347085064051
 11
-225.9395970539916
 21
-258.1347085064051
 72
     1
 10
-225.9395970539916
 20
-258.1347085064051
 11
-226.1510771074674
 21
-258.675669050623
 72
     1
 10
-226.1510771074674
 20
-258.675669050623
 11
-227.3915815177204
 21
-258.675669050623
 72
     1
 10
-227.3915815177204
 20
-258.675669050623
 11
-225.9936284707811
 21
-255.6218595268119
 72
     1
 10
-225.9936284707811
 20
-255.6218595268119
 11
-224.7531240605284
 21
-255.6218595268119
 72
     1
 10
-224.7531240605284
 20
-255.6218595268119
 11
-223.3551710135881
 21
-258.675669050623
 72
     1
 10
-223.3551710135881
 20
-258.675669050623
 11
-224.595675423842
 21
-258.675669050623
 97
        8
330
1A8
330
1A9
330
160
330
1AA
330
15F
330
162
330
1A7
330
161
 92
       16
 93
        3
 72
     1
 10
-225.6735415028466
 20
-257.4541452410985
 11
-225.3733762656542
 21
-256.6863302751118
 72
     1
 10
-225.3733762656542
 20
-256.6863302751118
 11
-225.0732110284641
 21
-257.4541452410985
 72
     1
 10
-225.0732110284641
 20
-257.4541452410985
 11
-225.6735415028466
 21
-257.4541452410985
 97
        3
330
15E
330
1AC
330
1AB
 75
     1
 76
     0
 52
45.0
 41
0.1
 77
     0
 78
     1
 53
45.0
 43
0.0
 44
0.0
 45
-0.0707106781186548
 46
0.0707106781186548
 79
     0
 98
        1
 10
0.0
 20
0.0
  0
HATCH
  5
22B
330
71
100
AcDbEntity
  8
1
  6
Continuous
 62
     2
100
AcDbHatch
 10
0.0
 20
0.0
 30
0.0
210
0.0
220
0.0
230
1.0
  2
_USER
 70
     0
 71
     1
 91
        2
 92
        1
 93
        8
 72
     1
 10
-224.595675423842
 20
-258.675669050623
 11
-224.8071554773178
 21
-258.1347085064051
 72
     1
 10
-224.8071554773178
 20
-258.1347085064051
 11
-225.9395970539916
 21
-258.1347085064051
 72
     1
 10
-225.9395970539916
 20
-258.1347085064051
 11
-226.1510771074674
 21
-258.675669050623
 72
     1
 10
-226.1510771074674
 20
-258.675669050623
 11
-227.3915815177204
 21
-258.675669050623
 72
     1
 10
-227.3915815177204
 20
-258.675669050623
 11
-225.9936284707811
 21
-255.6218595268119
 72
     1
 10
-225.9936284707811
 20
-255.6218595268119
 11
-224.7531240605284
 21
-255.6218595268119
 72
     1
 10
-224.7531240605284
 20
-255.6218595268119
 11
-223.3551710135881
 21
-258.675669050623
 72
     1
 10
-223.3551710135881
 20
-258.675669050623
 11
-224.595675423842
 21
-258.675669050623
 97
        8
330
1A8
330
1A9
330
160
330
1AA
330
15F
330
162
330
1A7
330
161
 92
       16
 93
        3
 72
     1
 10
-225.6735415028466
 20
-257.4541452410985
 11
-225.3733762656542
 21
-256.6863302751118
 72
     1
 10
-225.3733762656542
 20
-256.6863302751118
 11
-225.0732110284641
 21
-257.4541452410985
 72
     1
 10
-225.0732110284641
 20
-257.4541452410985
 11
-225.6735415028466
 21
-257.4541452410985
 97
        3
330
15E
330
1AC
330
1AB
 75
     1
 76
     0
 52
45.0
 41
0.1
 77
     0
 78
     1
 53
45.0
 43
0.0
 44
0.0
 45
-0.0707106781186548
 46
0.0707106781186548
 79
     0
 98
        1
 10
0.0
 20
0.0
  0
HATCH
  5
22C
330
71
100
AcDbEntity
  8
1
  6
Continuous
 62
     2
100
AcDbHatch
 10
0.0
 20
0.0
 30
0.0
210
0.0
220
0.0
230
1.0
  2
_USER
 70
     0
 71
     1
 91
        1
 92
        1
 93
        4
 72
     1
 10
-222.9647270100561
 20
-255.3164785744487
 11
-224.205231420309
 21
-255.3164785744487
 72
     1
 10
-224.205231420309
 20
-255.3164785744487
 11
-224.205231420309
 21
-252.2626690506375
 72
     1
 10
-224.205231420309
 20
-252.2626690506375
 11
-222.9647270100561
 21
-252.2626690506375
 72
     1
 10
-222.9647270100561
 20
-252.2626690506375
 11
-222.9647270100561
 21
-255.3164785744487
 97
        4
330
15B
330
15D
330
1AD
330
15C
 75
     1
 76
     0
 52
45.0
 41
0.1
 77
     0
 78
     1
 53
45.0
 43
0.0
 44
0.0
 45
-0.0707106781186548
 46
0.0707106781186548
 79
     0
 98
        1
 10
0.0
 20
0.0
  0
HATCH
  5
22D
330
71
100
AcDbEntity
  8
1
  6
Continuous
 62
     2
100
AcDbHatch
 10
0.0
 20
0.0
 30
0.0
210
0.0
220
0.0
230
1.0
  2
_USER
 70
     0
 71
     1
 91
        1
 92
        1
 93
        4
 72
     1
 10
-222.9647270100561
 20
-255.3164785744487
 11
-224.205231420309
 21
-255.3164785744487
 72
     1
 10
-224.205231420309
 20
-255.3164785744487
 11
-224.205231420309
 21
-252.2626690506375
 72
     1
 10
-224.205231420309
 20
-252.2626690506375
 11
-222.9647270100561
 21
-252.2626690506375
 72
     1
 10
-222.9647270100561
 20
-252.2626690506375
 11
-222.9647270100561
 21
-255.3164785744487
 97
        4
330
15B
330
15D
330
1AD
330
15C
 75
     1
 76
     0
 52
45.0
 41
0.1
 77
     0
 78
     1
 53
45.0
 43
0.0
 44
0.0
 45
-0.0707106781186548
 46
0.0707106781186548
 79
     0
 98
        1
 10
0.0
 20
0.0
  0
HATCH
  5
22E
330
71
100
AcDbEntity
  8
1
  6
Continuous
 62
     2
100
AcDbHatch
 10
0.0
 20
0.0
 30
0.0
210
0.0
220
0.0
230
1.0
  2
_USER
 70
     0
 71
     1
 91
        1
 92
        1
 93
       12
 72
     1
 10
-218.7422408443853
 20
-252.2626690506375
 11
-220.0447704751518
 21
-253.7356195806737
 72
     1
 10
-220.0447704751518
 20
-253.7356195806737
 11
-218.6468174282115
 21
-255.3164785744487
 72
     1
 10
-218.6468174282115
 20
-255.3164785744487
 11
-220.0495416459598
 21
-255.3164785744487
 72
     1
 10
-220.0495416459598
 20
-255.3164785744487
 11
-220.7461325840253
 21
-254.528746789155
 72
     1
 10
-220.7461325840253
 20
-254.528746789155
 11
-221.442723522091
 21
-255.3164785744487
 72
     1
 10
-221.442723522091
 20
-255.3164785744487
 11
-222.8454477398392
 21
-255.3164785744487
 72
     1
 10
-222.8454477398392
 20
-255.3164785744487
 11
-221.4474946928989
 21
-253.7356195806737
 72
     1
 10
-221.4474946928989
 20
-253.7356195806737
 11
-222.7500243236664
 21
-252.2626690506375
 72
     1
 10
-222.7500243236664
 20
-252.2626690506375
 11
-221.3473001059171
 21
-252.2626690506375
 72
     1
 10
-221.3473001059171
 20
-252.2626690506375
 11
-220.7461325840253
 21
-252.942492372193
 72
     1
 10
-220.7461325840253
 20
-252.942492372193
 11
-220.1449650621325
 21
-252.2626690506375
 72
     1
 10
-220.1449650621325
 20
-252.2626690506375
 11
-218.7422408443853
 21
-252.2626690506375
 97
       12
330
156
330
155
330
154
330
1B1
330
1B2
330
1AE
330
1AF
330
15A
330
159
330
158
330
157
330
1B0
 75
     1
 76
     0
 52
45.0
 41
0.1
 77
     0
 78
     1
 53
45.0
 43
0.0
 44
0.0
 45
-0.0707106781186548
 46
0.0707106781186548
 79
     0
 98
        1
 10
0.0
 20
0.0
  0
HATCH
  5
22F
330
71
100
AcDbEntity
  8
1
  6
Continuous
 62
     2
100
AcDbHatch
 10
0.0
 20
0.0
 30
0.0
210
0.0
220
0.0
230
1.0
  2
_USER
 70
     0
 71
     1
 91
        1
 92
        1
 93
       12
 72
     1
 10
-218.7422408443853
 20
-252.2626690506375
 11
-220.0447704751518
 21
-253.7356195806737
 72
     1
 10
-220.0447704751518
 20
-253.7356195806737
 11
-218.6468174282115
 21
-255.3164785744487
 72
     1
 10
-218.6468174282115
 20
-255.3164785744487
 11
-220.0495416459598
 21
-255.3164785744487
 72
     1
 10
-220.0495416459598
 20
-255.3164785744487
 11
-220.7461325840253
 21
-254.528746789155
 72
     1
 10
-220.7461325840253
 20
-254.528746789155
 11
-221.442723522091
 21
-255.3164785744487
 72
     1
 10
-221.442723522091
 20
-255.3164785744487
 11
-222.8454477398392
 21
-255.3164785744487
 72
     1
 10
-222.8454477398392
 20
-255.3164785744487
 11
-221.4474946928989
 21
-253.7356195806737
 72
     1
 10
-221.4474946928989
 20
-253.7356195806737
 11
-222.7500243236664
 21
-252.2626690506375
 72
     1
 10
-222.7500243236664
 20
-252.2626690506375
 11
-221.3473001059171
 21
-252.2626690506375
 72
     1
 10
-221.3473001059171
 20
-252.2626690506375
 11
-220.7461325840253
 21
-252.942492372193
 72
     1
 10
-220.7461325840253
 20
-252.942492372193
 11
-220.1449650621325
 21
-252.2626690506375
 72
     1
 10
-220.1449650621325
 20
-252.2626690506375
 11
-218.7422408443853
 21
-252.2626690506375
 97
       12
330
156
330
155
330
154
330
1B1
330
1B2
330
1AE
330
1AF
330
15A
330
159
330
158
330
157
330
1B0
 75
     1
 76
     0
 52
45.0
 41
0.1
 77
     0
 78
     1
 53
45.0
 43
0.0
 44
0.0
 45
-0.0707106781186548
 46
0.0707106781186548
 79
     0
 98
        1
 10
0.0
 20
0.0
  0
HATCH
  5
230
330
71
100
AcDbEntity
  8
1
  6
Continuous
 62
     2
100
AcDbHatch
 10
0.0
 20
0.0
 30
0.0
210
0.0
220
0.0
230
1.0
  2
_USER
 70
     0
 71
     1
 91
        2
 92
        1
 93
        6
 72
     1
 10
-237.7599762585313
 20
-254.3734003333049
 11
-238.5187438463116
 21
-254.3734003333049
 72
     1
 10
-238.5187438463116
 20
-254.3734003333049
 11
-238.5187438463116
 21
-255.3164785744487
 72
     1
 10
-238.5187438463116
 20
-255.3164785744487
 11
-239.7592482565657
 21
-255.3164785744487
 72
     1
 10
-239.7592482565657
 20
-255.3164785744487
 11
-239.7592482565657
 21
-252.2626690506375
 72
     1
 10
-239.7592482565657
 20
-252.2626690506375
 11
-237.7599762585313
 21
-252.2626690506375
 72
     2
 10
-237.7599762585313
 20
-253.3180346919712
 40
1.05536564133368
 50
270.0
 51
450.0
 73
     0
 97
        6
330
17E
330
17D
330
18A
330
189
330
17F
330
1CF
 92
       16
 93
        4
 72
     2
 10
-238.2014487847697
 20
-253.2786387207487
 40
0.3528638246711182
 50
270.0
 51
450.0
 73
     1
 72
     1
 10
-238.2014487847697
 20
-252.9257748960776
 11
-238.5187438463116
 21
-252.9257748960776
 72
     1
 10
-238.5187438463116
 20
-252.9257748960776
 11
-238.5187438463116
 21
-253.6315025454198
 72
     1
 10
-238.5187438463116
 20
-253.6315025454198
 11
-238.2014487847697
 21
-253.6315025454198
 97
        4
330
1E3
330
17B
330
18B
330
17C
 75
     1
 76
     0
 52
45.0
 41
0.1
 77
     0
 78
     1
 53
45.0
 43
0.0
 44
0.0
 45
-0.0707106781186548
 46
0.0707106781186548
 79
     0
 98
        1
 10
0.0
 20
0.0
  0
HATCH
  5
231
330
71
100
AcDbEntity
  8
1
  6
Continuous
 62
     2
100
AcDbHatch
 10
0.0
 20
0.0
 30
0.0
210
0.0
220
0.0
230
1.0
  2
_USER
 70
     0
 71
     1
 91
        2
 92
        1
 93
        6
 72
     1
 10
-237.7599762585313
 20
-254.3734003333049
 11
-238.5187438463116
 21
-254.3734003333049
 72
     1
 10
-238.5187438463116
 20
-254.3734003333049
 11
-238.5187438463116
 21
-255.3164785744487
 72
     1
 10
-238.5187438463116
 20
-255.3164785744487
 11
-239.7592482565657
 21
-255.3164785744487
 72
     1
 10
-239.7592482565657
 20
-255.3164785744487
 11
-239.7592482565657
 21
-252.2626690506375
 72
     1
 10
-239.7592482565657
 20
-252.2626690506375
 11
-237.7599762585313
 21
-252.2626690506375
 72
     2
 10
-237.7599762585313
 20
-253.3180346919712
 40
1.05536564133368
 50
270.0
 51
450.0
 73
     0
 97
        6
330
17E
330
17D
330
18A
330
189
330
17F
330
1CF
 92
       16
 93
        4
 72
     2
 10
-238.2014487847697
 20
-253.2786387207487
 40
0.3528638246711182
 50
270.0
 51
450.0
 73
     1
 72
     1
 10
-238.2014487847697
 20
-252.9257748960776
 11
-238.5187438463116
 21
-252.9257748960776
 72
     1
 10
-238.5187438463116
 20
-252.9257748960776
 11
-238.5187438463116
 21
-253.6315025454198
 72
     1
 10
-238.5187438463116
 20
-253.6315025454198
 11
-238.2014487847697
 21
-253.6315025454198
 97
        4
330
1E3
330
17B
330
18B
330
17C
 75
     1
 76
     0
 52
45.0
 41
0.1
 77
     0
 78
     1
 53
45.0
 43
0.0
 44
0.0
 45
-0.0707106781186548
 46
0.0707106781186548
 79
     0
 98
        1
 10
0.0
 20
0.0
  0
HATCH
  5
232
330
71
100
AcDbEntity
  8
1
  6
Continuous
 62
     2
100
AcDbHatch
 10
0.0
 20
0.0
 30
0.0
210
0.0
220
0.0
230
1.0
  2
_USER
 70
     0
 71
     1
 91
        2
 92
        1
 93
        4
 72
     2
 10
-235.2034335101722
 20
-257.6873392990205
 40
2.065479772208568
 50
62.45185182430637
 51
117.5481481756664
 73
     1
 72
     2
 10
-235.4843734020055
 20
-257.1487642887177
 40
1.45803408365149
 50
117.5481481756624
 51
242.451851824338
 73
     1
 72
     2
 10
-235.2034335101722
 20
-256.6101892784144
 40
2.065479772208534
 50
242.4518518243405
 51
297.5481481756867
 73
     1
 72
     2
 10
-234.9224936183389
 20
-257.1487642887177
 40
1.458034083652028
 50
297.5481481757005
 51
422.451851824299
 73
     1
 97
        4
330
1DB
330
1DA
330
1DC
330
1D9
 92
       16
 93
        4
 72
     2
 10
-235.4031735465186
 20
-257.1487642887177
 40
0.7717997786796724
 50
321.8795802028404
 51
398.1204197971563
 73
     1
 72
     2
 10
-235.2034335101722
 20
-256.9920331105972
 40
0.5179085730133349
 50
38.12041979715197
 51
141.8795802028538
 73
     1
 72
     2
 10
-235.0036934738261
 20
-257.1487642887177
 40
0.7717997786794808
 50
141.8795802028346
 51
218.1204197971687
 73
     1
 72
     2
 10
-235.2034335101722
 20
-257.3054954668377
 40
0.5179085730137178
 50
218.1204197971907
 51
321.8795802028035
 73
     1
 97
        4
330
1F7
330
1F4
330
1F5
330
1F6
 75
     1
 76
     0
 52
45.0
 41
0.1
 77
     0
 78
     1
 53
45.0
 43
0.0
 44
0.0
 45
-0.0707106781186548
 46
0.0707106781186548
 79
     0
 98
        1
 10
0.0
 20
0.0
  0
HATCH
  5
233
330
71
100
AcDbEntity
  8
1
  6
Continuous
 62
     2
100
AcDbHatch
 10
0.0
 20
0.0
 30
0.0
210
0.0
220
0.0
230
1.0
  2
_USER
 70
     0
 71
     1
 91
        2
 92
        1
 93
        4
 72
     2
 10
-235.2034335101722
 20
-257.6873392990205
 40
2.065479772208568
 50
62.45185182430637
 51
117.5481481756664
 73
     1
 72
     2
 10
-235.4843734020055
 20
-257.1487642887177
 40
1.45803408365149
 50
117.5481481756624
 51
242.451851824338
 73
     1
 72
     2
 10
-235.2034335101722
 20
-256.6101892784144
 40
2.065479772208534
 50
242.4518518243405
 51
297.5481481756867
 73
     1
 72
     2
 10
-234.9224936183389
 20
-257.1487642887177
 40
1.458034083652028
 50
297.5481481757005
 51
422.451851824299
 73
     1
 97
        4
330
1DB
330
1DA
330
1DC
330
1D9
 92
       16
 93
        4
 72
     2
 10
-235.4031735465186
 20
-257.1487642887177
 40
0.7717997786796724
 50
321.8795802028404
 51
398.1204197971563
 73
     1
 72
     2
 10
-235.2034335101722
 20
-256.9920331105972
 40
0.5179085730133349
 50
38.12041979715197
 51
141.8795802028538
 73
     1
 72
     2
 10
-235.0036934738261
 20
-257.1487642887177
 40
0.7717997786794808
 50
141.8795802028346
 51
218.1204197971687
 73
     1
 72
     2
 10
-235.2034335101722
 20
-257.3054954668377
 40
0.5179085730137178
 50
218.1204197971907
 51
321.8795802028035
 73
     1
 97
        4
330
1F7
330
1F4
330
1F5
330
1F6
 75
     1
 76
     0
 52
45.0
 41
0.1
 77
     0
 78
     1
 53
45.0
 43
0.0
 44
0.0
 45
-0.0707106781186548
 46
0.0707106781186548
 79
     0
 98
        1
 10
0.0
 20
0.0
  0
HATCH
  5
234
330
71
100
AcDbEntity
  8
1
  6
Continuous
 62
     2
100
AcDbHatch
 10
0.0
 20
0.0
 30
0.0
210
0.0
220
0.0
230
1.0
  2
_USER
 70
     0
 71
     1
 91
        2
 92
        1
 93
       12
 72
     1
 10
-228.3084383157629
 20
-252.9606826560805
 11
-229.6443661421906
 21
-252.9606826560805
 72
     1
 10
-229.6443661421906
 20
-252.9606826560805
 11
-229.6443661421906
 21
-253.4405670098222
 72
     1
 10
-229.6443661421906
 20
-253.4405670098222
 11
-228.3084383157629
 21
-253.4405670098222
 72
     1
 10
-228.3084383157629
 20
-253.4405670098222
 11
-228.3084383157629
 21
-254.1385806152645
 72
     1
 10
-228.3084383157629
 20
-254.1385806152645
 11
-229.6443661421906
 21
-254.1385806152645
 72
     1
 10
-229.6443661421906
 20
-254.1385806152645
 11
-229.6443661421906
 21
-254.6184649690062
 72
     1
 10
-229.6443661421906
 20
-254.6184649690062
 11
-228.3084383157629
 21
-254.6184649690062
 72
     1
 10
-228.3084383157629
 20
-254.6184649690062
 11
-228.3084383157629
 21
-255.3164785744487
 72
     1
 10
-228.3084383157629
 20
-255.3164785744487
 11
-231.4587580395439
 21
-255.3164785744487
 72
     2
 10
-231.4587580395439
 20
-253.7895738125434
 40
1.526904761905911
 50
90.0
 51
270.0
 73
     0
 72
     1
 10
-231.4587580395439
 20
-252.2626690506375
 11
-228.3084383157629
 21
-252.2626690506375
 72
     1
 10
-228.3084383157629
 20
-252.2626690506375
 11
-228.3084383157629
 21
-252.9606826560805
 97
       12
330
192
330
1E4
330
193
330
194
330
195
330
196
330
173
330
172
330
171
330
170
330
197
330
191
 92
       16
 93
        4
 72
     2
 10
-231.2424860293787
 20
-253.6328426344229
 40
0.5179085730135266
 50
38.12041979714334
 51
141.8795802028489
 73
     1
 72
     2
 10
-231.0427459930324
 20
-253.7895738125434
 40
0.77179977867969
 50
141.8795802028388
 51
218.1204197971546
 73
     1
 72
     2
 10
-231.2424860293787
 20
-253.9463049906638
 40
0.5179085730134372
 50
218.1204197971511
 51
321.8795802028566
 73
     1
 72
     2
 10
-231.4422260657249
 20
-253.7895738125434
 40
0.7717997786796198
 50
321.8795802028454
 51
398.1204197971612
 73
     1
 97
        4
330
1DE
330
1DD
330
1D8
330
1D7
 75
     1
 76
     0
 52
45.0
 41
0.1
 77
     0
 78
     1
 53
45.0
 43
0.0
 44
0.0
 45
-0.0707106781186548
 46
0.0707106781186548
 79
     0
 98
        1
 10
0.0
 20
0.0
  0
HATCH
  5
235
330
71
100
AcDbEntity
  8
1
  6
Continuous
 62
     2
100
AcDbHatch
 10
0.0
 20
0.0
 30
0.0
210
0.0
220
0.0
230
1.0
  2
_USER
 70
     0
 71
     1
 91
        2
 92
        1
 93
       12
 72
     1
 10
-228.3084383157629
 20
-252.9606826560805
 11
-229.6443661421906
 21
-252.9606826560805
 72
     1
 10
-229.6443661421906
 20
-252.9606826560805
 11
-229.6443661421906
 21
-253.4405670098222
 72
     1
 10
-229.6443661421906
 20
-253.4405670098222
 11
-228.3084383157629
 21
-253.4405670098222
 72
     1
 10
-228.3084383157629
 20
-253.4405670098222
 11
-228.3084383157629
 21
-254.1385806152645
 72
     1
 10
-228.3084383157629
 20
-254.1385806152645
 11
-229.6443661421906
 21
-254.1385806152645
 72
     1
 10
-229.6443661421906
 20
-254.1385806152645
 11
-229.6443661421906
 21
-254.6184649690062
 72
     1
 10
-229.6443661421906
 20
-254.6184649690062
 11
-228.3084383157629
 21
-254.6184649690062
 72
     1
 10
-228.3084383157629
 20
-254.6184649690062
 11
-228.3084383157629
 21
-255.3164785744487
 72
     1
 10
-228.3084383157629
 20
-255.3164785744487
 11
-231.4587580395439
 21
-255.3164785744487
 72
     2
 10
-231.4587580395439
 20
-253.7895738125434
 40
1.526904761905911
 50
90.0
 51
270.0
 73
     0
 72
     1
 10
-231.4587580395439
 20
-252.2626690506375
 11
-228.3084383157629
 21
-252.2626690506375
 72
     1
 10
-228.3084383157629
 20
-252.2626690506375
 11
-228.3084383157629
 21
-252.9606826560805
 97
       12
330
192
330
1E4
330
193
330
194
330
195
330
196
330
173
330
172
330
171
330
170
330
197
330
191
 92
       16
 93
        4
 72
     2
 10
-231.2424860293787
 20
-253.6328426344229
 40
0.5179085730135266
 50
38.12041979714334
 51
141.8795802028489
 73
     1
 72
     2
 10
-231.0427459930324
 20
-253.7895738125434
 40
0.77179977867969
 50
141.8795802028388
 51
218.1204197971546
 73
     1
 72
     2
 10
-231.2424860293787
 20
-253.9463049906638
 40
0.5179085730134372
 50
218.1204197971511
 51
321.8795802028566
 73
     1
 72
     2
 10
-231.4422260657249
 20
-253.7895738125434
 40
0.7717997786796198
 50
321.8795802028454
 51
398.1204197971612
 73
     1
 97
        4
330
1DE
330
1DD
330
1D8
330
1D7
 75
     1
 76
     0
 52
45.0
 41
0.1
 77
     0
 78
     1
 53
45.0
 43
0.0
 44
0.0
 45
-0.0707106781186548
 46
0.0707106781186548
 79
     0
 98
        1
 10
0.0
 20
0.0
  0
HATCH
  5
236
330
71
100
AcDbEntity
  8
1
  6
Continuous
 62
     2
100
AcDbHatch
 10
0.0
 20
0.0
 30
0.0
210
0.0
220
0.0
230
1.0
  2
_USER
 70
     0
 71
     1
 91
        4
 92
        1
 93
        8
 72
     1
 10
-240.2363653374325
 20
-252.6869136660395
 11
-240.2363653374325
 21
-258.2514244352397
 72
     2
 10
-240.6606099528164
 20
-258.2514244352397
 40
0.4242446153833157
 50
0.0
 51
90.0
 73
     0
 72
     1
 10
-240.6606099528164
 20
-258.675669050623
 11
-246.1339220435332
 21
-258.675669050623
 72
     2
 10
-246.1339220435332
 20
-258.2514244352397
 40
0.4242446153828041
 50
90.0
 51
180.0
 73
     0
 72
     1
 10
-246.558166658916
 20
-258.2514244352397
 11
-246.558166658916
 21
-252.6869136660395
 72
     2
 10
-246.1339220435332
 20
-252.6869136660395
 40
0.4242446153837989
 50
180.0
 51
270.0
 73
     0
 72
     1
 10
-246.1339220435332
 20
-252.2626690506557
 11
-240.6606099528164
 21
-252.2626690506557
 72
     2
 10
-240.6606099528164
 20
-252.6869136660395
 40
0.4242446153839126
 50
270.0
 51
360.0
 73
     0
 97
        8
330
186
330
1D4
330
187
330
1DF
330
184
330
1D6
330
185
330
1D5
 92
       16
 93
        1
 72
     2
 10
-243.5143363930157
 20
-255.005795894395
 40
0.4709789327785074
 50
0.0
 51
360.0
 73
     1
 97
        1
330
1FA
 92
       16
 93
        8
 72
     2
 10
-242.964478680255
 20
-256.1149374943634
 40
0.3157169230765071
 50
115.3740086783541
 51
180.0
 73
     1
 72
     1
 10
-243.2801956033318
 20
-256.1149374943634
 11
-243.2801956033318
 21
-256.6967889010585
 72
     2
 10
-242.964478680255
 20
-256.6967889010585
 40
0.315716923076792
 50
180.0
 51
269.8110329574542
 73
     1
 72
     2
 10
-242.958862544945
 20
-254.9939539534895
 40
2.018561131933266
 50
269.8110329575858
 51
450.1889670424142
 73
     1
 72
     2
 10
-242.964478680255
 20
-253.2911190059204
 40
0.3157169230760711
 50
90.18896704254594
 51
180.0
 73
     1
 72
     1
 10
-243.2801956033318
 20
-253.2911190059204
 11
-243.2801956033318
 21
-253.8966542944272
 72
     2
 10
-242.964478680255
 20
-253.8966542944272
 40
0.315716923076792
 50
180.0
 51
244.6259913216459
 73
     1
 72
     2
 10
-243.4905213783429
 20
-255.005795894395
 40
0.9118481501444847
 50
295.3740086781925
 51
424.6259913218244
 73
     0
 97
        8
330
1EC
330
14D
330
1E9
330
1EA
330
1C8
330
14C
330
1EB
330
1C7
 92
       16
 93
       12
 72
     2
 10
-245.5400273667867
 20
-257.6473965719894
 40
0.315716923075712
 50
180.0
 51
270.0
 73
     1
 72
     1
 10
-245.5400273667867
 20
-257.9631134950661
 11
-244.0641941057771
 21
-257.9631134950661
 72
     2
 10
-244.0641941057771
 20
-257.6473965719894
 40
0.3157169230767067
 50
270.0
 51
360.0
 73
     1
 72
     1
 10
-243.7484771827005
 20
-257.6473965719894
 11
-243.7484771827005
 21
-256.1166256404578
 72
     2
 10
-244.0641941057771
 20
-256.1166256404578
 40
0.315716923076593
 50
0.0
 51
64.80558935146249
 73
     1
 72
     2
 10
-243.5416096582021
 20
-255.005795894395
 40
0.9118975235575889
 50
115.1944106485122
 51
244.805589351471
 73
     0
 72
     2
 10
-244.0641941057771
 20
-253.8949661483328
 40
0.315716923076146
 50
295.1944106485375
 51
360.0
 73
     1
 72
     1
 10
-243.7484771827005
 20
-253.8949661483328
 11
-243.7484771827005
 21
-253.2909415292723
 72
     2
 10
-244.0641941057771
 20
-253.2909415292723
 40
0.315716923076593
 50
0.0
 51
90.0
 73
     1
 72
     1
 10
-244.0641941057771
 20
-252.9752246061961
 11
-245.5400273667867
 21
-252.9752246061961
 72
     2
 10
-245.5400273667867
 20
-253.2909415292723
 40
0.3157169230761951
 50
90.0
 51
180.0
 73
     1
 72
     1
 10
-245.8557442898624
 20
-253.2909415292723
 11
-245.8557442898624
 21
-257.6473965719894
 97
       12
330
1D0
330
188
330
1D3
330
183
330
1E0
330
1E1
330
1D2
330
182
330
1D1
330
181
330
1E2
330
180
 75
     1
 76
     0
 52
45.0
 41
0.1
 77
     0
 78
     1
 53
45.0
 43
0.0
 44
0.0
 45
-0.0707106781186548
 46
0.0707106781186548
 79
     0
 98
        1
 10
0.0
 20
0.0
  0
HATCH
  5
237
330
71
100
AcDbEntity
  8
1
  6
Continuous
 62
     2
100
AcDbHatch
 10
0.0
 20
0.0
 30
0.0
210
0.0
220
0.0
230
1.0
  2
_USER
 70
     0
 71
     1
 91
        4
 92
        1
 93
        8
 72
     1
 10
-240.2363653374325
 20
-252.6869136660395
 11
-240.2363653374325
 21
-258.2514244352397
 72
     2
 10
-240.6606099528164
 20
-258.2514244352397
 40
0.4242446153833157
 50
0.0
 51
90.0
 73
     0
 72
     1
 10
-240.6606099528164
 20
-258.675669050623
 11
-246.1339220435332
 21
-258.675669050623
 72
     2
 10
-246.1339220435332
 20
-258.2514244352397
 40
0.4242446153828041
 50
90.0
 51
180.0
 73
     0
 72
     1
 10
-246.558166658916
 20
-258.2514244352397
 11
-246.558166658916
 21
-252.6869136660395
 72
     2
 10
-246.1339220435332
 20
-252.6869136660395
 40
0.4242446153837989
 50
180.0
 51
270.0
 73
     0
 72
     1
 10
-246.1339220435332
 20
-252.2626690506557
 11
-240.6606099528164
 21
-252.2626690506557
 72
     2
 10
-240.6606099528164
 20
-252.6869136660395
 40
0.4242446153839126
 50
270.0
 51
360.0
 73
     0
 97
        8
330
186
330
1D4
330
187
330
1DF
330
184
330
1D6
330
185
330
1D5
 92
       16
 93
        1
 72
     2
 10
-243.5143363930157
 20
-255.005795894395
 40
0.4709789327785074
 50
0.0
 51
360.0
 73
     1
 97
        1
330
1FA
 92
       16
 93
        8
 72
     2
 10
-242.964478680255
 20
-256.1149374943634
 40
0.3157169230765071
 50
115.3740086783541
 51
180.0
 73
     1
 72
     1
 10
-243.2801956033318
 20
-256.1149374943634
 11
-243.2801956033318
 21
-256.6967889010585
 72
     2
 10
-242.964478680255
 20
-256.6967889010585
 40
0.315716923076792
 50
180.0
 51
269.8110329574542
 73
     1
 72
     2
 10
-242.958862544945
 20
-254.9939539534895
 40
2.018561131933266
 50
269.8110329575858
 51
450.1889670424142
 73
     1
 72
     2
 10
-242.964478680255
 20
-253.2911190059204
 40
0.3157169230760711
 50
90.18896704254594
 51
180.0
 73
     1
 72
     1
 10
-243.2801956033318
 20
-253.2911190059204
 11
-243.2801956033318
 21
-253.8966542944272
 72
     2
 10
-242.964478680255
 20
-253.8966542944272
 40
0.315716923076792
 50
180.0
 51
244.6259913216459
 73
     1
 72
     2
 10
-243.4905213783429
 20
-255.005795894395
 40
0.9118481501444847
 50
295.3740086781925
 51
424.6259913218244
 73
     0
 97
        8
330
1EC
330
14D
330
1E9
330
1EA
330
1C8
330
14C
330
1EB
330
1C7
 92
       16
 93
       12
 72
     2
 10
-245.5400273667867
 20
-257.6473965719894
 40
0.315716923075712
 50
180.0
 51
270.0
 73
     1
 72
     1
 10
-245.5400273667867
 20
-257.9631134950661
 11
-244.0641941057771
 21
-257.9631134950661
 72
     2
 10
-244.0641941057771
 20
-257.6473965719894
 40
0.3157169230767067
 50
270.0
 51
360.0
 73
     1
 72
     1
 10
-243.7484771827005
 20
-257.6473965719894
 11
-243.7484771827005
 21
-256.1166256404578
 72
     2
 10
-244.0641941057771
 20
-256.1166256404578
 40
0.315716923076593
 50
0.0
 51
64.80558935146249
 73
     1
 72
     2
 10
-243.5416096582021
 20
-255.005795894395
 40
0.9118975235575889
 50
115.1944106485122
 51
244.805589351471
 73
     0
 72
     2
 10
-244.0641941057771
 20
-253.8949661483328
 40
0.315716923076146
 50
295.1944106485375
 51
360.0
 73
     1
 72
     1
 10
-243.7484771827005
 20
-253.8949661483328
 11
-243.7484771827005
 21
-253.2909415292723
 72
     2
 10
-244.0641941057771
 20
-253.2909415292723
 40
0.315716923076593
 50
0.0
 51
90.0
 73
     1
 72
     1
 10
-244.0641941057771
 20
-252.9752246061961
 11
-245.5400273667867
 21
-252.9752246061961
 72
     2
 10
-245.5400273667867
 20
-253.2909415292723
 40
0.3157169230761951
 50
90.0
 51
180.0
 73
     1
 72
     1
 10
-245.8557442898624
 20
-253.2909415292723
 11
-245.8557442898624
 21
-257.6473965719894
 97
       12
330
1D0
330
188
330
1D3
330
183
330
1E0
330
1E1
330
1D2
330
182
330
1D1
330
181
330
1E2
330
180
 75
     1
 76
     0
 52
45.0
 41
0.1
 77
     0
 78
     1
 53
45.0
 43
0.0
 44
0.0
 45
-0.0707106781186548
 46
0.0707106781186548
 79
     0
 98
        1
 10
0.0
 20
0.0
  0
HATCH
  5
238
330
71
100
AcDbEntity
  8
1
  6
Continuous
 62
     2
100
AcDbHatch
 10
0.0
 20
0.0
 30
0.0
210
0.0
220
0.0
230
1.0
  2
_USER
 70
     0
 71
     1
 91
        1
 92
        1
 93
       18
 72
     1
 10
-218.6468174282115
 20
-256.4071248329355
 11
-219.4579164656849
 21
-256.4071248329355
 72
     1
 10
-219.4579164656849
 20
-256.4071248329355
 11
-219.4579164656849
 21
-258.675669050623
 72
     1
 10
-219.4579164656849
 20
-258.675669050623
 11
-220.6507091678526
 21
-258.675669050623
 72
     1
 10
-220.6507091678526
 20
-258.675669050623
 11
-220.6507091678526
 21
-256.4071248329355
 72
     1
 10
-220.6507091678526
 20
-256.4071248329355
 11
-221.7543484674207
 21
-256.4071248329355
 72
     2
 10
-221.7543484674207
 20
-257.3616478397616
 40
0.9545230068260935
 50
90.0
 51
109.337143219432
 73
     1
 72
     2
 10
-221.9010184655244
 20
-256.9436928593787
 40
0.5115800601944143
 50
109.3371432194853
 51
151.4785267424253
 73
     1
 72
     2
 10
-221.523661207443
 20
-257.1487642887177
 40
0.9410597353348789
 50
151.478526742364
 51
208.5214732576695
 73
     1
 72
     2
 10
-221.9010184655244
 20
-257.3538357180562
 40
0.5115800601960215
 50
208.5214732576866
 51
246.6277221118449
 73
     1
 72
     2
 10
-221.7445784328213
 20
-256.9918436993462
 40
0.9059297849852801
 50
246.6277221118183
 51
288.4480761180817
 73
     1
 72
     2
 10
-222.1627461664832
 20
-255.7382979233096
 40
2.227384008972746
 50
288.4480761181335
 51
301.9309089499397
 73
     1
 72
     1
 10
-220.9846911244593
 20
-257.6286486424594
 11
-220.9846911244593
 21
-258.5011656492627
 72
     2
 10
-222.320619041576
 20
-253.8360833434613
 40
4.852596863498853
 50
74.02000874166129
 51
84.8418552303637
 73
     0
 72
     2
 10
-222.0317629468402
 20
-257.0359739266829
 40
1.639695123940448
 50
84.8418552303238
 51
164.9381082228988
 73
     0
 72
     2
 10
-222.4508907903018
 20
-257.1487642887177
 40
1.205656168393002
 50
164.9381082229028
 51
195.0618917770972
 73
     0
 72
     2
 10
-222.0317629468402
 20
-257.2615546507526
 40
1.639695123940214
 50
195.061891777105
 51
270.0
 73
     0
 72
     1
 10
-222.0317629468402
 20
-255.6218595268124
 11
-218.6468174282115
 21
-255.6218595268119
 72
     1
 10
-218.6468174282115
 20
-255.6218595268119
 11
-218.6468174282115
 21
-256.4071248329355
 97
       18
330
14F
330
1E5
330
1E6
330
1CE
330
1CD
330
1B3
330
1CC
330
1CB
330
1E7
330
1CA
330
1E8
330
1C9
330
1B4
330
14E
330
153
330
152
330
151
330
150
 75
     1
 76
     0
 52
45.0
 41
0.1
 77
     0
 78
     1
 53
45.0
 43
0.0
 44
0.0
 45
-0.0707106781186548
 46
0.0707106781186548
 79
     0
 98
        1
 10
0.0
 20
0.0
  0
HATCH
  5
239
330
71
100
AcDbEntity
  8
1
  6
Continuous
 62
     2
100
AcDbHatch
 10
0.0
 20
0.0
 30
0.0
210
0.0
220
0.0
230
1.0
  2
_USER
 70
     0
 71
     1
 91
        1
 92
        1
 93
       18
 72
     1
 10
-218.6468174282115
 20
-256.4071248329355
 11
-219.4579164656849
 21
-256.4071248329355
 72
     1
 10
-219.4579164656849
 20
-256.4071248329355
 11
-219.4579164656849
 21
-258.675669050623
 72
     1
 10
-219.4579164656849
 20
-258.675669050623
 11
-220.6507091678526
 21
-258.675669050623
 72
     1
 10
-220.6507091678526
 20
-258.675669050623
 11
-220.6507091678526
 21
-256.4071248329355
 72
     1
 10
-220.6507091678526
 20
-256.4071248329355
 11
-221.7543484674207
 21
-256.4071248329355
 72
     2
 10
-221.7543484674207
 20
-257.3616478397616
 40
0.9545230068260935
 50
90.0
 51
109.337143219432
 73
     1
 72
     2
 10
-221.9010184655244
 20
-256.9436928593787
 40
0.5115800601944143
 50
109.3371432194853
 51
151.4785267424253
 73
     1
 72
     2
 10
-221.523661207443
 20
-257.1487642887177
 40
0.9410597353348789
 50
151.478526742364
 51
208.5214732576695
 73
     1
 72
     2
 10
-221.9010184655244
 20
-257.3538357180562
 40
0.5115800601960215
 50
208.5214732576866
 51
246.6277221118449
 73
     1
 72
     2
 10
-221.7445784328213
 20
-256.9918436993462
 40
0.9059297849852801
 50
246.6277221118183
 51
288.4480761180817
 73
     1
 72
     2
 10
-222.1627461664832
 20
-255.7382979233096
 40
2.227384008972746
 50
288.4480761181335
 51
301.9309089499397
 73
     1
 72
     1
 10
-220.9846911244593
 20
-257.6286486424594
 11
-220.9846911244593
 21
-258.5011656492627
 72
     2
 10
-222.320619041576
 20
-253.8360833434613
 40
4.852596863498853
 50
74.02000874166129
 51
84.8418552303637
 73
     0
 72
     2
 10
-222.0317629468402
 20
-257.0359739266829
 40
1.639695123940448
 50
84.8418552303238
 51
164.9381082228988
 73
     0
 72
     2
 10
-222.4508907903018
 20
-257.1487642887177
 40
1.205656168393002
 50
164.9381082229028
 51
195.0618917770972
 73
     0
 72
     2
 10
-222.0317629468402
 20
-257.2615546507526
 40
1.639695123940214
 50
195.061891777105
 51
270.0
 73
     0
 72
     1
 10
-222.0317629468402
 20
-255.6218595268124
 11
-218.6468174282115
 21
-255.6218595268119
 72
     1
 10
-218.6468174282115
 20
-255.6218595268119
 11
-218.6468174282115
 21
-256.4071248329355
 97
       18
330
14F
330
1E5
330
1E6
330
1CE
330
1CD
330
1B3
330
1CC
330
1CB
330
1E7
330
1CA
330
1E8
330
1C9
330
1B4
330
14E
330
153
330
152
330
151
330
150
 75
     1
 76
     0
 52
45.0
 41
0.1
 77
     0
 78
     1
 53
45.0
 43
0.0
 44
0.0
 45
-0.0707106781186548
 46
0.0707106781186548
 79
     0
 98
        1
 10
0.0
 20
0.0
  0
HATCH
  5
23A
330
71
100
AcDbEntity
  8
1
  6
Continuous
 62
     2
100
AcDbHatch
 10
0.0
 20
0.0
 30
0.0
210
0.0
220
0.0
230
1.0
  2
_USER
 70
     0
 71
     1
 91
        1
 92
        1
 93
       14
 72
     2
 10
-238.1344644260931
 20
-257.2615546507526
 40
1.639695123940509
 50
84.84185523036136
 51
164.9381082228864
 73
     1
 72
     2
 10
-238.5535922695559
 20
-257.1487642887177
 40
1.205656168390944
 50
164.9381082228765
 51
195.0618917770948
 73
     1
 72
     2
 10
-238.1344644260931
 20
-257.0359739266829
 40
1.63969512393938
 50
195.0618917770886
 51
275.1581447696406
 73
     1
 72
     2
 10
-238.423320520829
 20
-253.8360833434613
 40
4.852596863498141
 50
275.1581447696253
 51
285.979991258353
 73
     1
 72
     1
 10
-237.0873926037112
 20
-258.5011656492621
 11
-237.0873926037112
 21
-257.6286486424589
 72
     2
 10
-238.2654476457361
 20
-255.738297923309
 40
2.227384008972773
 50
58.06909105004111
 51
71.55192388186677
 73
     0
 72
     2
 10
-237.8472799120753
 20
-256.9918436993462
 40
0.9059297849849192
 50
71.55192388184041
 51
113.372277888129
 73
     0
 72
     2
 10
-238.0037199447773
 20
-257.3538357180562
 40
0.5115800601948034
 50
113.3722778881755
 51
151.4785267423044
 73
     0
 72
     2
 10
-237.626362686697
 20
-257.1487642887177
 40
0.9410597353332295
 50
151.4785267422934
 51
208.5214732577339
 73
     0
 72
     2
 10
-238.0037199447773
 20
-256.9436928593787
 40
0.511580060194863
 50
208.5214732576956
 51
246.6277221117967
 73
     0
 72
     2
 10
-237.8472799120753
 20
-257.3056848780893
 40
0.9059297849853858
 50
246.627722111871
 51
288.4480761181471
 73
     0
 72
     2
 10
-238.2654476457361
 20
-258.5592306541259
 40
2.227384008973453
 50
288.4480761181333
 51
301.9309089499596
 73
     0
 72
     1
 10
-237.0873926037112
 20
-256.668879934976
 11
-237.0873926037112
 21
-255.7963629281727
 72
     2
 10
-238.423320520829
 20
-260.4614452339736
 40
4.852596863498095
 50
74.02000874164747
 51
84.84185523037475
 73
     1
 97
       14
330
1ED
330
1EE
330
1EF
330
1F0
330
1B5
330
1C6
330
1C5
330
1C4
330
1F1
330
1F2
330
1C3
330
1F3
330
1B6
330
1C2
 75
     1
 76
     0
 52
45.0
 41
0.1
 77
     0
 78
     1
 53
45.0
 43
0.0
 44
0.0
 45
-0.0707106781186548
 46
0.0707106781186548
 79
     0
 98
        1
 10
0.0
 20
0.0
  0
HATCH
  5
23B
330
71
100
AcDbEntity
  8
1
  6
Continuous
 62
     2
100
AcDbHatch
 10
0.0
 20
0.0
 30
0.0
210
0.0
220
0.0
230
1.0
  2
_USER
 70
     0
 71
     1
 91
        1
 92
        1
 93
       14
 72
     2
 10
-238.1344644260931
 20
-257.2615546507526
 40
1.639695123940509
 50
84.84185523036136
 51
164.9381082228864
 73
     1
 72
     2
 10
-238.5535922695559
 20
-257.1487642887177
 40
1.205656168390944
 50
164.9381082228765
 51
195.0618917770948
 73
     1
 72
     2
 10
-238.1344644260931
 20
-257.0359739266829
 40
1.63969512393938
 50
195.0618917770886
 51
275.1581447696406
 73
     1
 72
     2
 10
-238.423320520829
 20
-253.8360833434613
 40
4.852596863498141
 50
275.1581447696253
 51
285.979991258353
 73
     1
 72
     1
 10
-237.0873926037112
 20
-258.5011656492621
 11
-237.0873926037112
 21
-257.6286486424589
 72
     2
 10
-238.2654476457361
 20
-255.738297923309
 40
2.227384008972773
 50
58.06909105004111
 51
71.55192388186677
 73
     0
 72
     2
 10
-237.8472799120753
 20
-256.9918436993462
 40
0.9059297849849192
 50
71.55192388184041
 51
113.372277888129
 73
     0
 72
     2
 10
-238.0037199447773
 20
-257.3538357180562
 40
0.5115800601948034
 50
113.3722778881755
 51
151.4785267423044
 73
     0
 72
     2
 10
-237.626362686697
 20
-257.1487642887177
 40
0.9410597353332295
 50
151.4785267422934
 51
208.5214732577339
 73
     0
 72
     2
 10
-238.0037199447773
 20
-256.9436928593787
 40
0.511580060194863
 50
208.5214732576956
 51
246.6277221117967
 73
     0
 72
     2
 10
-237.8472799120753
 20
-257.3056848780893
 40
0.9059297849853858
 50
246.627722111871
 51
288.4480761181471
 73
     0
 72
     2
 10
-238.2654476457361
 20
-258.5592306541259
 40
2.227384008973453
 50
288.4480761181333
 51
301.9309089499596
 73
     0
 72
     1
 10
-237.0873926037112
 20
-256.668879934976
 11
-237.0873926037112
 21
-255.7963629281727
 72
     2
 10
-238.423320520829
 20
-260.4614452339736
 40
4.852596863498095
 50
74.02000874164747
 51
84.84185523037475
 73
     1
 97
       14
330
1ED
330
1EE
330
1EF
330
1F0
330
1B5
330
1C6
330
1C5
330
1C4
330
1F1
330
1F2
330
1C3
330
1F3
330
1B6
330
1C2
 75
     1
 76
     0
 52
45.0
 41
0.1
 77
     0
 78
     1
 53
45.0
 43
0.0
 44
0.0
 45
-0.0707106781186548
 46
0.0707106781186548
 79
     0
 98
        1
 10
0.0
 20
0.0
  0
ENDBLK
  5
73
330
71
100
AcDbEntity
  8
0
100
AcDbBlockEnd
  0
BLOCK
  5
75
330
74
100
AcDbEntity
  8
0
100
AcDbBlockBegin
  2
_punkt
 70
     0
 10
-121.2500170187286
 20
-265.9691690506393
 30
0.0
  3
_punkt
  1

  0
LINE
  5
23C
330
74
100
AcDbEntity
  8
1
  6
Continuous
 62
     2
100
AcDbLine
 10
-121.2500170187286
 20
-265.9691690506393
 30
0.0
 11
-116.2500170187296
 21
-265.9691690506393
 31
0.0
  0
LINE
  5
23D
330
74
100
AcDbEntity
  8
1
  6
Continuous
 62
     2
100
AcDbLine
 10
-121.2500170187286
 20
-265.9691690506393
 30
0.0
 11
-121.2500170187286
 21
-270.9691690506394
 31
0.0
  0
ENDBLK
  5
76
330
74
100
AcDbEntity
  8
0
100
AcDbBlockEnd
  0
BLOCK
  5
7A
330
77
100
AcDbEntity
  8
0
100
AcDbBlockBegin
  2
A4I_CS
 70
     0
 10
-121.2500170187286
 20
-270.9691690506394
 30
0.0
  3
A4I_CS
  1

  0
INSERT
  5
78
330
77
100
AcDbEntity
  8
1
100
AcDbBlockReference
  2
_rahmen
 10
-121.2500170187286
 20
-270.9691690506394
 30
0.0
  0
INSERT
  5
79
330
77
100
AcDbEntity
  8
1
100
AcDbBlockReference
  2
_punkt
 10
-121.2500170187286
 20
-265.9691690506393
 30
0.0
  0
ENDBLK
  5
7B
330
77
100
AcDbEntity
  8
0
100
AcDbBlockEnd
  0
BLOCK
  5
84
330
7C
100
AcDbEntity
  8
0
100
AcDbBlockBegin
  2
1
 70
     0
 10
0.0
 20
0.0
 30
0.0
  3
1
  1

  0
INSERT
  5
7D
330
7C
100
AcDbEntity
  8
0
100
AcDbBlockReference
  2
Allg1
 10
-168.9999818053348
 20
-202.0000052523349
 30
0.0
 41
5.0
 42
5.0
 43
5.0
  0
INSERT
  5
7E
330
7C
100
AcDbEntity
  8
0
100
AcDbBlockReference
  2
Drfsicht1
 10
-295.999978990625
 20
-193.999999999975
 30
0.0
 41
5.0
 42
5.0
 43
5.0
  0
INSERT
  5
7F
330
7C
100
AcDbEntity
  8
0
100
AcDbBlockReference
  2
Rckans1
 10
-172.7500225512882
 20
-120.1250455379484
 30
0.0
 41
5.0
 42
5.0
 43
5.0
  0
INSERT
  5
80
330
7C
100
AcDbEntity
  8
0
100
AcDbBlockReference
  2
SA_Links1
 10
-234.375000770982
 20
-120.1250455379484
 30
0.0
 41
5.0
 42
5.0
 43
5.0
  0
INSERT
  5
81
330
7C
100
AcDbEntity
  8
0
100
AcDbBlockReference
  2
SA_Rechts1
 10
-367.6249592290173
 20
-120.1250455379484
 30
0.0
 41
5.0
 42
5.0
 43
5.0
  0
INSERT
  5
82
330
7C
100
AcDbEntity
  8
0
100
AcDbBlockReference
  2
Vordans1
 10
-295.9999789906248
 20
-120.1250455379484
 30
0.0
 41
5.0
 42
5.0
 43
5.0
  0
INSERT
  5
83
330
7C
100
AcDbEntity
  8
0
100
AcDbBlockReference
  2
A4I_CS
 10
-121.2500170187286
 20
-270.9691690506394
 30
0.0
  0
ENDBLK
  5
85
330
7C
100
AcDbEntity
  8
0
100
AcDbBlockEnd
  0
BLOCK
  5
B3
330
AC
100
AcDbEntity
  8
0
100
AcDbBlockBegin
  2
*D17
 70
     1
 10
0.0
 20
0.0
 30
0.0
  3
*D17
  1

  0
LINE
  5
AD
330
AC
100
AcDbEntity
  8
1
  6
Continuous
 62
     2
100
AcDbLine
 10
-66.44998539437441
 20
-35.72500004767371
 30
0.0
 11
-66.44998539437441
 21
-41.87500004767372
 31
0.0
  0
LINE
  5
AE
330
AC
100
AcDbEntity
  8
1
  6
Continuous
 62
     2
100
AcDbLine
 10
-64.44998539437441
 20
-41.87500004767372
 30
0.0
 11
-66.7499853943744
 21
-41.87500004767372
 31
0.0
  0
LINE
  5
AF
330
AC
100
AcDbEntity
  8
1
  6
Continuous
 62
     2
100
AcDbLine
 10
-64.4499853943735
 20
-35.72500004767371
 30
0.0
 11
-66.7499853943744
 21
-35.72500004767371
 31
0.0
  0
SOLID
  5
B0
330
AC
100
AcDbEntity
  8
1
 62
     2
100
AcDbTrace
 10
-66.35782864606323
 20
-36.42500004767371
 30
0.0
 11
-66.54214214268559
 21
-36.42500004767371
 31
0.0
 12
-66.44998539437441
 22
-35.72500004767371
 32
0.0
 13
-66.44998539437441
 23
-35.72500004767371
 33
0.0
  0
SOLID
  5
B1
330
AC
100
AcDbEntity
  8
1
 62
     2
100
AcDbTrace
 10
-66.54214214268559
 20
-41.17500004767371
 30
0.0
 11
-66.35782864606323
 21
-41.17500004767371
 31
0.0
 12
-66.44998539437441
 22
-41.87500004767372
 32
0.0
 13
-66.44998539437441
 23
-41.87500004767372
 33
0.0
  0
MTEXT
  5
B2
330
AC
100
AcDbEntity
  8
1
 62
     3
100
AcDbMText
 10
-66.81998539437441
 20
-39.55793676408101
 30
0.0
 40
0.7
 41
0.0
 71
     7
 72
     1
  1
6,15
  7
CONVERTER_11
 11
0.0
 21
1.0
 31
0.0
 73
     1
 44
0.60024009603842
  0
ENDBLK
  5
B4
330
AC
100
AcDbEntity
  8
0
100
AcDbBlockEnd
  0
BLOCK
  5
F6
330
EF
100
AcDbEntity
  8
0
100
AcDbBlockBegin
  2
*D18
 70
     1
 10
0.0
 20
0.0
 30
0.0
  3
*D18
  1

  0
LINE
  5
F0
330
EF
100
AcDbEntity
  8
1
  6
Continuous
 62
     2
100
AcDbLine
 10
-64.44998539437435
 20
-28.5738338101278
 30
0.0
 11
-53.94998539437344
 21
-28.5738338101278
 31
0.0
  0
LINE
  5
F1
330
EF
100
AcDbEntity
  8
1
  6
Continuous
 62
     2
100
AcDbLine
 10
-64.44998539437435
 20
-23.02500812204326
 30
0.0
 11
-64.44998539437435
 21
-28.8738338101278
 31
0.0
  0
LINE
  5
F2
330
EF
100
AcDbEntity
  8
1
  6
Continuous
 62
     2
100
AcDbLine
 10
-53.94998539437344
 20
-23.02500812204337
 30
0.0
 11
-53.94998539437344
 21
-28.8738338101278
 31
0.0
  0
SOLID
  5
F3
330
EF
100
AcDbEntity
  8
1
 62
     2
100
AcDbTrace
 10
-63.74998539437435
 20
-28.48167706181662
 30
0.0
 11
-63.74998539437435
 21
-28.66599055843897
 31
0.0
 12
-64.44998539437435
 22
-28.5738338101278
 32
0.0
 13
-64.44998539437435
 23
-28.5738338101278
 33
0.0
  0
SOLID
  5
F4
330
EF
100
AcDbEntity
  8
1
 62
     2
100
AcDbTrace
 10
-54.64998539437345
 20
-28.66599055843897
 30
0.0
 11
-54.64998539437345
 21
-28.48167706181662
 31
0.0
 12
-53.94998539437344
 22
-28.5738338101278
 32
0.0
 13
-53.94998539437344
 23
-28.5738338101278
 33
0.0
  0
MTEXT
  5
F5
330
EF
100
AcDbEntity
  8
1
 62
     3
100
AcDbMText
 10
-59.9480097328596
 20
-28.2038338101278
 30
0.0
 40
0.7
 41
0.0
 71
     7
 72
     1
  1
10,5
  7
CONVERTER_11
 11
0.9999999999970619
 21
2.424068405545306E-6
 31
0.0
 73
     1
 44
0.60024009603842
  0
ENDBLK
  5
F7
330
EF
100
AcDbEntity
  8
0
100
AcDbBlockEnd
  0
BLOCK
  5
101
330
FA
100
AcDbEntity
  8
0
100
AcDbBlockBegin
  2
*D19
 70
     1
 10
0.0
 20
0.0
 30
0.0
  3
*D19
  1

  0
LINE
  5
FB
330
FA
100
AcDbEntity
  8
1
  6
Continuous
 62
     2
100
AcDbLine
 10
-66.44998539437435
 20
-21.92500812204335
 30
0.0
 11
-66.44998539437435
 21
-26.12500812204357
 31
0.0
  0
LINE
  5
FC
330
FA
100
AcDbEntity
  8
1
  6
Continuous
 62
     2
100
AcDbLine
 10
-62.02498539437349
 20
-26.12500812204357
 30
0.0
 11
-66.74998539437435
 21
-26.12500812204357
 31
0.0
  0
LINE
  5
FD
330
FA
100
AcDbEntity
  8
1
  6
Continuous
 62
     2
100
AcDbLine
 10
-64.44998539437435
 20
-21.92500812204335
 30
0.0
 11
-66.74998539437435
 21
-21.92500812204335
 31
0.0
  0
SOLID
  5
FE
330
FA
100
AcDbEntity
  8
1
 62
     2
100
AcDbTrace
 10
-66.35782864606317
 20
-22.62500812204335
 30
0.0
 11
-66.54214214268553
 21
-22.62500812204335
 31
0.0
 12
-66.44998539437435
 22
-21.92500812204335
 32
0.0
 13
-66.44998539437435
 23
-21.92500812204335
 33
0.0
  0
SOLID
  5
FF
330
FA
100
AcDbEntity
  8
1
 62
     2
100
AcDbTrace
 10
-66.54214214268553
 20
-25.42500812204357
 30
0.0
 11
-66.35782864606317
 21
-25.42500812204357
 31
0.0
 12
-66.44998539437435
 22
-26.12500812204357
 32
0.0
 13
-66.44998539437435
 23
-26.12500812204357
 33
0.0
  0
MTEXT
  5
100
330
FA
100
AcDbEntity
  8
1
 62
     3
100
AcDbMText
 10
-66.81998539437436
 20
-24.67250812204346
 30
0.0
 40
0.7
 41
0.0
 71
     7
 72
     1
  1
4,2
  7
CONVERTER_11
 11
0.0
 21
1.0
 31
0.0
 73
     1
 44
0.60024009603842
  0
ENDBLK
  5
102
330
FA
100
AcDbEntity
  8
0
100
AcDbBlockEnd
  0
ENDSEC
  0
SECTION
  2
ENTITIES
  0
INSERT
  5
86
330
1F
100
AcDbEntity
  8
1
100
AcDbBlockReference
  2
1
 10
0.0
 20
0.0
 30
0.0
  0
ENDSEC
  0
SECTION
  2
OBJECTS
  0
DICTIONARY
  5
C
330
0
100
AcDbDictionary
281
     1
  3
ACAD_GROUP
350
D
  3
ACAD_LAYOUT
350
1A
  3
ACAD_MATERIAL
350
3B
  3
ACAD_MLEADERSTYLE
350
265
  3
ACAD_MLINESTYLE
350
17
  3
ACAD_PLOTSETTINGS
350
19
  3
ACAD_PLOTSTYLENAME
350
E
  3
ACAD_TABLESTYLE
350
264
  3
ACAD_VISUALSTYLE
350
2A
  0
DICTIONARY
  5
D
102
{ACAD_REACTORS
330
C
102
}
330
C
100
AcDbDictionary
281
     1
  0
DICTIONARY
  5
1A
102
{ACAD_REACTORS
330
C
102
}
330
C
100
AcDbDictionary
281
     1
  3
Layout1
350
1E
  3
Layout2
350
26
  3
Model
350
22
  0
DICTIONARY
  5
3B
102
{ACAD_REACTORS
330
C
102
}
330
C
100
AcDbDictionary
281
     1
  3
ByBlock
350
3D
  3
ByLayer
350
3C
  3
Global
350
3E
  0
DICTIONARY
  5
265
102
{ACAD_REACTORS
330
C
102
}
330
C
100
AcDbDictionary
281
     1
  0
DICTIONARY
  5
17
102
{ACAD_REACTORS
330
C
102
}
330
C
100
AcDbDictionary
281
     1
  3
Standard
350
18
  0
DICTIONARY
  5
19
102
{ACAD_REACTORS
330
C
102
}
330
C
100
AcDbDictionary
281
     1
  0
ACDBDICTIONARYWDFLT
  5
E
102
{ACAD_REACTORS
330
C
102
}
330
C
100
AcDbDictionary
281
     1
  3
Normal
350
F
100
AcDbDictionaryWithDefault
340
F
  0
DICTIONARY
  5
264
102
{ACAD_REACTORS
330
C
102
}
330
C
100
AcDbDictionary
281
     1
  0
DICTIONARY
  5
2A
102
{ACAD_REACTORS
330
C
102
}
330
C
100
AcDbDictionary
281
     1
  3
2dWireframe
350
2F
  3
3D Hidden
350
31
  3
3dWireframe
350
30
  3
Basic
350
32
  3
Brighten
350
36
  3
ColorChange
350
3A
  3
Conceptual
350
34
  3
Dim
350
35
  3
Facepattern
350
39
  3
Flat
350
2B
  3
FlatWithEdges
350
2C
  3
Gouraud
350
2D
  3
GouraudWithEdges
350
2E
  3
Linepattern
350
38
  3
Realistic
350
33
  3
Thicken
350
37
  0
LAYOUT
  5
1E
102
{ACAD_REACTORS
330
1A
102
}
330
1A
100
AcDbPlotSettings
  1

  2
none_device
  4

  6

 40
0.0
 41
0.0
 42
0.0
 43
0.0
 44
0.0
 45
0.0
 46
0.0
 47
0.0
 48
0.0
 49
0.0
140
0.0
141
0.0
142
1.0
143
1.0
 70
   688
 72
     0
 73
     0
 74
     5
  7

 75
    16
 76
     0
 77
     2
 78
   300
147
1.0
148
0.0
149
0.0
100
AcDbLayout
  1
Layout1
 70
     1
 71
     1
 10
0.0
 20
0.0
 11
12.0
 21
9.0
 12
0.0
 22
0.0
 32
0.0
 14
1.00000000000000E+20
 24
1.00000000000000E+20
 34
1.00000000000000E+20
 15
-1.00000000000000E+20
 25
-1.00000000000000E+20
 35
-1.00000000000000E+20
146
0.0
 13
0.0
 23
0.0
 33
0.0
 16
1.0
 26
0.0
 36
0.0
 17
0.0
 27
1.0
 37
0.0
 76
     0
330
1B
  0
LAYOUT
  5
26
102
{ACAD_REACTORS
330
1A
102
}
330
1A
100
AcDbPlotSettings
  1

  2
none_device
  4

  6

 40
0.0
 41
0.0
 42
0.0
 43
0.0
 44
0.0
 45
0.0
 46
0.0
 47
0.0
 48
0.0
 49
0.0
140
0.0
141
0.0
142
1.0
143
1.0
 70
   688
 72
     0
 73
     0
 74
     5
  7

 75
    16
 76
     0
 77
     2
 78
   300
147
1.0
148
0.0
149
0.0
100
AcDbLayout
  1
Layout2
 70
     1
 71
     2
 10
0.0
 20
0.0
 11
0.0
 21
0.0
 12
0.0
 22
0.0
 32
0.0
 14
0.0
 24
0.0
 34
0.0
 15
0.0
 25
0.0
 35
0.0
146
0.0
 13
0.0
 23
0.0
 33
0.0
 16
1.0
 26
0.0
 36
0.0
 17
0.0
 27
1.0
 37
0.0
 76
     0
330
23
  0
LAYOUT
  5
22
102
{ACAD_REACTORS
330
1A
102
}
330
1A
100
AcDbPlotSettings
  1

  2
none_device
  4

  6

 40
0.0
 41
0.0
 42
0.0
 43
0.0
 44
0.0
 45
0.0
 46
0.0
 47
0.0
 48
0.0
 49
0.0
140
0.0
141
0.0
142
1.0
143
1.0
 70
  1712
 72
     0
 73
     0
 74
     0
  7

 75
     0
 76
     0
 77
     2
 78
   300
147
1.0
148
0.0
149
0.0
100
AcDbLayout
  1
Model
 70
     1
 71
     0
 10
0.0
 20
0.0
 11
12.0
 21
9.0
 12
0.0
 22
0.0
 32
0.0
 14
-413.2500170187277
 24
-270.9691690506394
 34
0.0
 15
-116.2500170187296
 25
-60.96916905063929
 35
0.0
146
0.0
 13
0.0
 23
0.0
 33
0.0
 16
1.0
 26
0.0
 36
0.0
 17
0.0
 27
1.0
 37
0.0
 76
     0
330
1F
331
29
  0
MATERIAL
  5
3D
102
{ACAD_REACTORS
330
3B
102
}
102
{ACAD_XDICTIONARY
360
260
102
}
330
3B
100
AcDbMaterial
  1
ByBlock
  0
MATERIAL
  5
3C
102
{ACAD_REACTORS
330
3B
102
}
102
{ACAD_XDICTIONARY
360
25E
102
}
330
3B
100
AcDbMaterial
  1
ByLayer
  0
MATERIAL
  5
3E
102
{ACAD_REACTORS
330
3B
102
}
102
{ACAD_XDICTIONARY
360
262
102
}
330
3B
100
AcDbMaterial
  1
Global
  0
MLINESTYLE
  5
18
102
{ACAD_REACTORS
330
17
102
}
330
17
100
AcDbMlineStyle
  2
Standard
 70
     0
  3

 62
   256
 51
90.0
 52
90.0
 71
     2
 49
0.5
 62
   256
  6
BYLAYER
 49
-0.5
 62
   256
  6
BYLAYER
  0
ACDBPLACEHOLDER
  5
F
102
{ACAD_REACTORS
330
E
102
}
330
E
  0
VISUALSTYLE
  5
2F
102
{ACAD_REACTORS
330
2A
102
}
102
{ACAD_XDICTIONARY
360
246
102
}
330
2A
100
AcDbVisualStyle
  2
2dWireframe
 70
     4
 71
     0
 72
     2
 73
     0
 90
        0
 40
-0.6
 41
-30.0
 62
     5
 63
     7
421
 16777215
 74
     1
 91
        4
 64
     7
 65
   257
 75
     1
175
     1
 42
1.0
 92
        0
 66
   257
 43
1.0
 76
     1
 77
     6
 78
     2
 67
     7
 79
     5
170
     0
171
     0
290
     0
174
     0
 93
        1
 44
0.0
173
     0
291
     0
 45
0.0
1001
ACAD
1000
AcDbSavedByObjectVersion
1070
     0
  0
VISUALSTYLE
  5
31
102
{ACAD_REACTORS
330
2A
102
}
102
{ACAD_XDICTIONARY
360
24A
102
}
330
2A
100
AcDbVisualStyle
  2
3D Hidden
 70
     6
 71
     1
 72
     2
 73
     2
 90
        0
 40
-0.6
 41
-30.0
 62
     5
 63
     7
421
 16777215
 74
     2
 91
        2
 64
     7
 65
   257
 75
     2
175
     1
 42
40.0
 92
        0
 66
   257
 43
1.0
 76
     1
 77
     6
 78
     2
 67
     7
 79
     3
170
     0
171
     0
290
     0
174
     0
 93
        1
 44
0.0
173
     0
291
     0
 45
0.0
1001
ACAD
1000
AcDbSavedByObjectVersion
1070
     0
  0
VISUALSTYLE
  5
30
102
{ACAD_REACTORS
330
2A
102
}
102
{ACAD_XDICTIONARY
360
248
102
}
330
2A
100
AcDbVisualStyle
  2
3dWireframe
 70
     5
 71
     0
 72
     2
 73
     0
 90
        0
 40
-0.6
 41
-30.0
 62
     5
 63
     7
421
 16777215
 74
     1
 91
        4
 64
     7
 65
   257
 75
     1
175
     1
 42
1.0
 92
        0
 66
   257
 43
1.0
 76
     1
 77
     6
 78
     2
 67
     7
 79
     5
170
     0
171
     0
290
     0
174
     0
 93
        1
 44
0.0
173
     0
291
     0
 45
0.0
1001
ACAD
1000
AcDbSavedByObjectVersion
1070
     0
  0
VISUALSTYLE
  5
32
102
{ACAD_REACTORS
330
2A
102
}
102
{ACAD_XDICTIONARY
360
24C
102
}
330
2A
100
AcDbVisualStyle
  2
Basic
 70
     7
 71
     1
 72
     0
 73
     1
 90
        0
 40
-0.6
 41
-30.0
 62
     5
 63
     7
421
 16777215
 74
     0
 91
        4
 64
     7
 65
   257
 75
     1
175
     1
 42
1.0
 92
        8
 66
     7
 43
1.0
 76
     1
 77
     6
 78
     2
 67
     7
 79
     5
170
     0
171
     0
290
     0
174
     0
 93
        1
 44
0.0
173
     0
291
     1
 45
0.0
1001
ACAD
1000
AcDbSavedByObjectVersion
1070
     0
  0
VISUALSTYLE
  5
36
102
{ACAD_REACTORS
330
2A
102
}
102
{ACAD_XDICTIONARY
360
254
102
}
330
2A
100
AcDbVisualStyle
  2
Brighten
 70
    12
 71
     2
 72
     2
 73
     0
 90
        0
 40
-0.6
 41
-30.0
 62
     5
 63
     7
421
 16777215
 74
     1
 91
        4
 64
     7
 65
   257
 75
     1
175
     1
 42
1.0
 92
        8
 66
     7
 43
1.0
 76
     1
 77
     6
 78
     2
 67
     7
 79
     5
170
     0
171
     0
290
     0
174
     0
 93
        1
 44
50.0
173
     0
291
     1
 45
0.0
1001
ACAD
1000
AcDbSavedByObjectVersion
1070
     0
  0
VISUALSTYLE
  5
3A
102
{ACAD_REACTORS
330
2A
102
}
102
{ACAD_XDICTIONARY
360
25C
102
}
330
2A
100
AcDbVisualStyle
  2
ColorChange
 70
    16
 71
     2
 72
     2
 73
     3
 90
        0
 40
-0.6
 41
-30.0
 62
     5
 63
     8
421
  8421504
 74
     1
 91
        4
 64
     7
 65
   257
 75
     1
175
     1
 42
1.0
 92
        8
 66
     8
424
  8421504
 43
1.0
 76
     1
 77
     6
 78
     2
 67
     7
 79
     5
170
     0
171
     0
290
     0
174
     0
 93
        1
 44
0.0
173
     0
291
     1
 45
0.0
1001
ACAD
1000
AcDbSavedByObjectVersion
1070
     0
  0
VISUALSTYLE
  5
34
102
{ACAD_REACTORS
330
2A
102
}
102
{ACAD_XDICTIONARY
360
250
102
}
330
2A
100
AcDbVisualStyle
  2
Conceptual
 70
     9
 71
     3
 72
     2
 73
     0
 90
        0
 40
-0.6
 41
-30.0
 62
     5
 63
     7
421
 16777215
 74
     2
 91
        2
 64
     7
 65
   257
 75
     1
175
     1
 42
40.0
 92
        8
 66
     7
 43
1.0
 76
     1
 77
     6
 78
     2
 67
     7
 79
     3
170
     0
171
     0
290
     0
174
     0
 93
        1
 44
0.0
173
     0
291
     0
 45
0.0
1001
ACAD
1000
AcDbSavedByObjectVersion
1070
     0
  0
VISUALSTYLE
  5
35
102
{ACAD_REACTORS
330
2A
102
}
102
{ACAD_XDICTIONARY
360
252
102
}
330
2A
100
AcDbVisualStyle
  2
Dim
 70
    11
 71
     2
 72
     2
 73
     0
 90
        0
 40
-0.6
 41
-30.0
 62
     5
 63
     7
421
 16777215
 74
     1
 91
        4
 64
     7
 65
   257
 75
     1
175
     1
 42
1.0
 92
        8
 66
     7
 43
1.0
 76
     1
 77
     6
 78
     2
 67
     7
 79
     5
170
     0
171
     0
290
     0
174
     0
 93
        1
 44
-50.0
173
     0
291
     1
 45
0.0
1001
ACAD
1000
AcDbSavedByObjectVersion
1070
     0
  0
VISUALSTYLE
  5
39
102
{ACAD_REACTORS
330
2A
102
}
102
{ACAD_XDICTIONARY
360
25A
102
}
330
2A
100
AcDbVisualStyle
  2
Facepattern
 70
    15
 71
     2
 72
     2
 73
     0
 90
        0
 40
-0.6
 41
-30.0
 62
     5
 63
     7
421
 16777215
 74
     1
 91
        4
 64
     7
 65
   257
 75
     1
175
     1
 42
1.0
 92
        8
 66
     7
 43
1.0
 76
     1
 77
     6
 78
     2
 67
     7
 79
     5
170
     0
171
     0
290
     0
174
     0
 93
        1
 44
0.0
173
     0
291
     1
 45
0.0
1001
ACAD
1000
AcDbSavedByObjectVersion
1070
     0
  0
VISUALSTYLE
  5
2B
102
{ACAD_REACTORS
330
2A
102
}
102
{ACAD_XDICTIONARY
360
23E
102
}
330
2A
100
AcDbVisualStyle
  2
Flat
 70
     0
 71
     2
 72
     1
 73
     1
 90
        2
 40
-0.6
 41
30.0
 62
     5
 63
     7
421
 16777215
 74
     0
 91
        4
 64
     7
 65
   257
 75
     1
175
     1
 42
1.0
 92
        8
 66
     7
 43
1.0
 76
     1
 77
     6
 78
     2
 67
     7
 79
     5
170
     0
171
     0
290
     0
174
     0
 93
       13
 44
0.0
173
     0
291
     1
 45
0.0
1001
ACAD
1000
AcDbSavedByObjectVersion
1070
     0
  0
VISUALSTYLE
  5
2C
102
{ACAD_REACTORS
330
2A
102
}
102
{ACAD_XDICTIONARY
360
240
102
}
330
2A
100
AcDbVisualStyle
  2
FlatWithEdges
 70
     1
 71
     2
 72
     1
 73
     1
 90
        2
 40
-0.6
 41
30.0
 62
     5
 63
     7
421
 16777215
 74
     1
 91
        4
 64
     7
 65
   257
 75
     1
175
     1
 42
1.0
 92
        0
 66
   257
 43
1.0
 76
     1
 77
     6
 78
     2
 67
     7
 79
     5
170
     0
171
     0
290
     0
174
     0
 93
       13
 44
0.0
173
     0
291
     1
 45
0.0
1001
ACAD
1000
AcDbSavedByObjectVersion
1070
     0
  0
VISUALSTYLE
  5
2D
102
{ACAD_REACTORS
330
2A
102
}
102
{ACAD_XDICTIONARY
360
242
102
}
330
2A
100
AcDbVisualStyle
  2
Gouraud
 70
     2
 71
     2
 72
     2
 73
     1
 90
        2
 40
-0.6
 41
30.0
 62
     5
 63
     7
421
 16777215
 74
     0
 91
        4
 64
     7
 65
   257
 75
     1
175
     1
 42
1.0
 92
        0
 66
     7
 43
1.0
 76
     1
 77
     6
 78
     2
 67
     7
 79
     5
170
     0
171
     0
290
     0
174
     0
 93
       13
 44
0.0
173
     0
291
     1
 45
0.0
1001
ACAD
1000
AcDbSavedByObjectVersion
1070
     0
  0
VISUALSTYLE
  5
2E
102
{ACAD_REACTORS
330
2A
102
}
102
{ACAD_XDICTIONARY
360
244
102
}
330
2A
100
AcDbVisualStyle
  2
GouraudWithEdges
 70
     3
 71
     2
 72
     2
 73
     1
 90
        2
 40
-0.6
 41
30.0
 62
     5
 63
     7
421
 16777215
 74
     1
 91
        4
 64
     7
 65
   257
 75
     1
175
     1
 42
1.0
 92
        0
 66
   257
 43
1.0
 76
     1
 77
     6
 78
     2
 67
     7
 79
     5
170
     0
171
     0
290
     0
174
     0
 93
       13
 44
0.0
173
     0
291
     1
 45
0.0
1001
ACAD
1000
AcDbSavedByObjectVersion
1070
     0
  0
VISUALSTYLE
  5
38
102
{ACAD_REACTORS
330
2A
102
}
102
{ACAD_XDICTIONARY
360
258
102
}
330
2A
100
AcDbVisualStyle
  2
Linepattern
 70
    14
 71
     2
 72
     2
 73
     0
 90
        0
 40
-0.6
 41
-30.0
 62
     5
 63
     7
421
 16777215
 74
     1
 91
        4
 64
     7
 65
   257
 75
     7
175
     7
 42
1.0
 92
        8
 66
     7
 43
1.0
 76
     1
 77
     6
 78
     2
 67
     7
 79
     5
170
     0
171
     0
290
     0
174
     0
 93
        1
 44
0.0
173
     0
291
     1
 45
0.0
1001
ACAD
1000
AcDbSavedByObjectVersion
1070
     0
  0
VISUALSTYLE
  5
33
102
{ACAD_REACTORS
330
2A
102
}
102
{ACAD_XDICTIONARY
360
24E
102
}
330
2A
100
AcDbVisualStyle
  2
Realistic
 70
     8
 71
     2
 72
     2
 73
     0
 90
        0
 40
-0.6
 41
-30.0
 62
     5
 63
     7
421
 16777215
 74
     1
 91
        0
 64
     7
 65
   257
 75
     1
175
     1
 42
1.0
 92
        8
 66
     8
424
  7895160
 43
1.0
 76
     1
 77
     6
 78
     2
 67
     7
 79
     5
170
     0
171
     0
290
     0
174
     0
 93
       13
 44
0.0
173
     0
291
     0
 45
0.0
1001
ACAD
1000
AcDbSavedByObjectVersion
1070
     0
  0
VISUALSTYLE
  5
37
102
{ACAD_REACTORS
330
2A
102
}
102
{ACAD_XDICTIONARY
360
256
102
}
330
2A
100
AcDbVisualStyle
  2
Thicken
 70
    13
 71
     2
 72
     2
 73
     0
 90
        0
 40
-0.6
 41
-30.0
 62
     5
 63
     7
421
 16777215
 74
     1
 91
        4
 64
     7
 65
   257
 75
     1
175
     1
 42
1.0
 92
       12
 66
     7
 43
1.0
 76
     1
 77
     6
 78
     2
 67
     7
 79
     5
170
     0
171
     0
290
     0
174
     0
 93
        1
 44
0.0
173
     0
291
     1
 45
0.0
1001
ACAD
1000
AcDbSavedByObjectVersion
1070
     0
  0
DICTIONARY
  5
260
330
3D
100
AcDbDictionary
280
     1
281
     1
  3
ACAD_XREC_ROUNDTRIP
360
261
  0
DICTIONARY
  5
25E
330
3C
100
AcDbDictionary
280
     1
281
     1
  3
ACAD_XREC_ROUNDTRIP
360
25F
  0
DICTIONARY
  5
262
330
3E
100
AcDbDictionary
280
     1
281
     1
  3
ACAD_XREC_ROUNDTRIP
360
263
  0
DICTIONARY
  5
246
330
2F
100
AcDbDictionary
280
     1
281
     1
  3
ACAD_XREC_ROUNDTRIP
360
247
  0
DICTIONARY
  5
24A
330
31
100
AcDbDictionary
280
     1
281
     1
  3
ACAD_XREC_ROUNDTRIP
360
24B
  0
DICTIONARY
  5
248
330
30
100
AcDbDictionary
280
     1
281
     1
  3
ACAD_XREC_ROUNDTRIP
360
249
  0
DICTIONARY
  5
24C
330
32
100
AcDbDictionary
280
     1
281
     1
  3
ACAD_XREC_ROUNDTRIP
360
24D
  0
DICTIONARY
  5
254
330
36
100
AcDbDictionary
280
     1
281
     1
  3
ACAD_XREC_ROUNDTRIP
360
255
  0
DICTIONARY
  5
25C
330
3A
100
AcDbDictionary
280
     1
281
     1
  3
ACAD_XREC_ROUNDTRIP
360
25D
  0
DICTIONARY
  5
250
330
34
100
AcDbDictionary
280
     1
281
     1
  3
ACAD_XREC_ROUNDTRIP
360
251
  0
DICTIONARY
  5
252
330
35
100
AcDbDictionary
280
     1
281
     1
  3
ACAD_XREC_ROUNDTRIP
360
253
  0
DICTIONARY
  5
25A
330
39
100
AcDbDictionary
280
     1
281
     1
  3
ACAD_XREC_ROUNDTRIP
360
25B
  0
DICTIONARY
  5
23E
330
2B
100
AcDbDictionary
280
     1
281
     1
  3
ACAD_XREC_ROUNDTRIP
360
23F
  0
DICTIONARY
  5
240
330
2C
100
AcDbDictionary
280
     1
281
     1
  3
ACAD_XREC_ROUNDTRIP
360
241
  0
DICTIONARY
  5
242
330
2D
100
AcDbDictionary
280
     1
281
     1
  3
ACAD_XREC_ROUNDTRIP
360
243
  0
DICTIONARY
  5
244
330
2E
100
AcDbDictionary
280
     1
281
     1
  3
ACAD_XREC_ROUNDTRIP
360
245
  0
DICTIONARY
  5
258
330
38
100
AcDbDictionary
280
     1
281
     1
  3
ACAD_XREC_ROUNDTRIP
360
259
  0
DICTIONARY
  5
24E
330
33
100
AcDbDictionary
280
     1
281
     1
  3
ACAD_XREC_ROUNDTRIP
360
24F
  0
DICTIONARY
  5
256
330
37
100
AcDbDictionary
280
     1
281
     1
  3
ACAD_XREC_ROUNDTRIP
360
257
  0
XRECORD
  5
261
102
{ACAD_REACTORS
330
260
102
}
330
260
100
AcDbXrecord
280
     1
102
MATERIAL
148
0.0
149
0.0
149
0.0
 93
        0
 94
      127
282
     0
 72
     1
 77
     1
171
     1
175
     1
179
     1
273
     0
  0
XRECORD
  5
25F
102
{ACAD_REACTORS
330
25E
102
}
330
25E
100
AcDbXrecord
280
     1
102
MATERIAL
148
0.0
149
0.0
149
0.0
 93
        0
 94
      127
282
     0
 72
     1
 77
     1
171
     1
175
     1
179
     1
273
     0
  0
XRECORD
  5
263
102
{ACAD_REACTORS
330
262
102
}
330
262
100
AcDbXrecord
280
     1
102
MATERIAL
148
0.0
149
0.0
149
0.0
 93
        0
 94
      127
282
     0
 72
     1
 77
     1
171
     1
175
     1
179
     1
273
     0
  0
XRECORD
  5
247
102
{ACAD_REACTORS
330
246
102
}
330
246
100
AcDbXrecord
280
     1
102
RTVSPropertyOp0
 70
     1
102
RTVSPropertyOp1
 70
     1
102
RTVSPropertyOp2
 70
     1
102
RTVSPropertyOp3
 70
     1
102
RTVSPropertyOp4
 70
     1
102
RTVSPropertyOp5
 70
     1
102
RTVSPropertyOp6
 70
     1
102
RTVSPropertyOp7
 70
     1
102
RTVSPropertyOp8
 70
     1
102
RTVSPropertyOp9
 70
     1
102
RTVSPropertyOp10
 70
     1
102
RTVSPropertyOp11
 70
     1
102
RTVSPropertyOp12
 70
     1
102
RTVSPropertyOp13
 70
     1
102
RTVSPropertyOp14
 70
     1
102
RTVSPropertyOp15
 70
     1
102
RTVSPropertyOp16
 70
     1
102
RTVSPropertyOp17
 70
     1
102
RTVSPropertyOp18
 70
     1
102
RTVSPropertyOp19
 70
     1
102
RTVSPropertyOp20
 70
     1
102
RTVSPropertyOp21
 70
     1
102
RTVSPropertyOp22
 70
     1
102
RTVSPropertyOp23
 70
     1
102
RTVSPropertyOp24
 70
     1
102
RTVSPropertyOp25
 70
     1
102
RTVSPropertyOp26
 70
     1
102
RTVSPropertyOp27
 70
     1
102
RTVSPropertyOp28
 70
     1
102
RTVSPropertyOp29
 70
     1
102
RTVSPropertyOp30
 70
     1
102
RTVSPropertyOp31
 70
     1
102
RTVSPropertyOp32
 70
     1
  0
XRECORD
  5
24B
102
{ACAD_REACTORS
330
24A
102
}
330
24A
100
AcDbXrecord
280
     1
102
RTVSPropertyOp0
 70
     1
102
RTVSPropertyOp1
 70
     1
102
RTVSPropertyOp2
 70
     1
102
RTVSPropertyOp3
 70
     1
102
RTVSPropertyOp4
 70
     1
102
RTVSPropertyOp5
 70
     1
102
RTVSPropertyOp6
 70
     1
102
RTVSPropertyOp7
 70
     1
102
RTVSPropertyOp8
 70
     1
102
RTVSPropertyOp9
 70
     1
102
RTVSPropertyOp10
 70
     1
102
RTVSPropertyOp11
 70
     1
102
RTVSPropertyOp12
 70
     1
102
RTVSPropertyOp13
 70
     1
102
RTVSPropertyOp14
 70
     1
102
RTVSPropertyOp15
 70
     1
102
RTVSPropertyOp16
 70
     1
102
RTVSPropertyOp17
 70
     1
102
RTVSPropertyOp18
 70
     1
102
RTVSPropertyOp19
 70
     1
102
RTVSPropertyOp20
 70
     1
102
RTVSPropertyOp21
 70
     1
102
RTVSPropertyOp22
 70
     1
102
RTVSPropertyOp23
 70
     1
102
RTVSPropertyOp24
 70
     1
102
RTVSPropertyOp25
 70
     1
102
RTVSPropertyOp26
 70
     1
102
RTVSPropertyOp27
 70
     1
102
RTVSPropertyOp28
 70
     1
102
RTVSPropertyOp29
 70
     1
102
RTVSPropertyOp30
 70
     1
102
RTVSPropertyOp31
 70
     1
102
RTVSPropertyOp32
 70
     1
  0
XRECORD
  5
249
102
{ACAD_REACTORS
330
248
102
}
330
248
100
AcDbXrecord
280
     1
102
RTVSPropertyOp0
 70
     1
102
RTVSPropertyOp1
 70
     1
102
RTVSPropertyOp2
 70
     1
102
RTVSPropertyOp3
 70
     1
102
RTVSPropertyOp4
 70
     1
102
RTVSPropertyOp5
 70
     1
102
RTVSPropertyOp6
 70
     1
102
RTVSPropertyOp7
 70
     1
102
RTVSPropertyOp8
 70
     1
102
RTVSPropertyOp9
 70
     1
102
RTVSPropertyOp10
 70
     1
102
RTVSPropertyOp11
 70
     1
102
RTVSPropertyOp12
 70
     1
102
RTVSPropertyOp13
 70
     1
102
RTVSPropertyOp14
 70
     1
102
RTVSPropertyOp15
 70
     1
102
RTVSPropertyOp16
 70
     1
102
RTVSPropertyOp17
 70
     1
102
RTVSPropertyOp18
 70
     1
102
RTVSPropertyOp19
 70
     1
102
RTVSPropertyOp20
 70
     1
102
RTVSPropertyOp21
 70
     1
102
RTVSPropertyOp22
 70
     1
102
RTVSPropertyOp23
 70
     1
102
RTVSPropertyOp24
 70
     1
102
RTVSPropertyOp25
 70
     1
102
RTVSPropertyOp26
 70
     1
102
RTVSPropertyOp27
 70
     1
102
RTVSPropertyOp28
 70
     1
102
RTVSPropertyOp29
 70
     1
102
RTVSPropertyOp30
 70
     1
102
RTVSPropertyOp31
 70
     1
102
RTVSPropertyOp32
 70
     1
  0
XRECORD
  5
24D
102
{ACAD_REACTORS
330
24C
102
}
330
24C
100
AcDbXrecord
280
     1
102
RTVSPropertyOp0
 70
     1
102
RTVSPropertyOp1
 70
     1
102
RTVSPropertyOp2
 70
     1
102
RTVSPropertyOp3
 70
     1
102
RTVSPropertyOp4
 70
     1
102
RTVSPropertyOp5
 70
     1
102
RTVSPropertyOp6
 70
     1
102
RTVSPropertyOp7
 70
     1
102
RTVSPropertyOp8
 70
     1
102
RTVSPropertyOp9
 70
     1
102
RTVSPropertyOp10
 70
     1
102
RTVSPropertyOp11
 70
     1
102
RTVSPropertyOp12
 70
     1
102
RTVSPropertyOp13
 70
     1
102
RTVSPropertyOp14
 70
     1
102
RTVSPropertyOp15
 70
     1
102
RTVSPropertyOp16
 70
     1
102
RTVSPropertyOp17
 70
     1
102
RTVSPropertyOp18
 70
     1
102
RTVSPropertyOp19
 70
     1
102
RTVSPropertyOp20
 70
     1
102
RTVSPropertyOp21
 70
     1
102
RTVSPropertyOp22
 70
     1
102
RTVSPropertyOp23
 70
     1
102
RTVSPropertyOp24
 70
     1
102
RTVSPropertyOp25
 70
     1
102
RTVSPropertyOp26
 70
     1
102
RTVSPropertyOp27
 70
     1
102
RTVSPropertyOp28
 70
     1
102
RTVSPropertyOp29
 70
     1
102
RTVSPropertyOp30
 70
     1
102
RTVSPropertyOp31
 70
     1
102
RTVSPropertyOp32
 70
     1
  0
XRECORD
  5
255
102
{ACAD_REACTORS
330
254
102
}
330
254
100
AcDbXrecord
280
     1
102
RTVSPropertyOp0
 70
     1
102
RTVSPropertyOp1
 70
     1
102
RTVSPropertyOp2
 70
     1
102
RTVSPropertyOp3
 70
     1
102
RTVSPropertyOp4
 70
     1
102
RTVSPropertyOp5
 70
     1
102
RTVSPropertyOp6
 70
     1
102
RTVSPropertyOp7
 70
     1
102
RTVSPropertyOp8
 70
     1
102
RTVSPropertyOp9
 70
     1
102
RTVSPropertyOp10
 70
     1
102
RTVSPropertyOp11
 70
     1
102
RTVSPropertyOp12
 70
     1
102
RTVSPropertyOp13
 70
     1
102
RTVSPropertyOp14
 70
     1
102
RTVSPropertyOp15
 70
     1
102
RTVSPropertyOp16
 70
     1
102
RTVSPropertyOp17
 70
     1
102
RTVSPropertyOp18
 70
     1
102
RTVSPropertyOp19
 70
     1
102
RTVSPropertyOp20
 70
     1
102
RTVSPropertyOp21
 70
     1
102
RTVSPropertyOp22
 70
     1
102
RTVSPropertyOp23
 70
     1
102
RTVSPropertyOp24
 70
     1
102
RTVSPropertyOp25
 70
     1
102
RTVSPropertyOp26
 70
     1
102
RTVSPropertyOp27
 70
     1
102
RTVSPropertyOp28
 70
     1
102
RTVSPropertyOp29
 70
     1
102
RTVSPropertyOp30
 70
     1
102
RTVSPropertyOp31
 70
     1
102
RTVSPropertyOp32
 70
     1
  0
XRECORD
  5
25D
102
{ACAD_REACTORS
330
25C
102
}
330
25C
100
AcDbXrecord
280
     1
102
RTVSPropertyOp0
 70
     1
102
RTVSPropertyOp1
 70
     1
102
RTVSPropertyOp2
 70
     1
102
RTVSPropertyOp3
 70
     1
102
RTVSPropertyOp4
 70
     1
102
RTVSPropertyOp5
 70
     1
102
RTVSPropertyOp6
 70
     1
102
RTVSPropertyOp7
 70
     1
102
RTVSPropertyOp8
 70
     1
102
RTVSPropertyOp9
 70
     1
102
RTVSPropertyOp10
 70
     1
102
RTVSPropertyOp11
 70
     1
102
RTVSPropertyOp12
 70
     1
102
RTVSPropertyOp13
 70
     1
102
RTVSPropertyOp14
 70
     1
102
RTVSPropertyOp15
 70
     1
102
RTVSPropertyOp16
 70
     1
102
RTVSPropertyOp17
 70
     1
102
RTVSPropertyOp18
 70
     1
102
RTVSPropertyOp19
 70
     1
102
RTVSPropertyOp20
 70
     1
102
RTVSPropertyOp21
 70
     1
102
RTVSPropertyOp22
 70
     1
102
RTVSPropertyOp23
 70
     1
102
RTVSPropertyOp24
 70
     1
102
RTVSPropertyOp25
 70
     1
102
RTVSPropertyOp26
 70
     1
102
RTVSPropertyOp27
 70
     1
102
RTVSPropertyOp28
 70
     1
102
RTVSPropertyOp29
 70
     1
102
RTVSPropertyOp30
 70
     1
102
RTVSPropertyOp31
 70
     1
102
RTVSPropertyOp32
 70
     1
  0
XRECORD
  5
251
102
{ACAD_REACTORS
330
250
102
}
330
250
100
AcDbXrecord
280
     1
102
RTVSPropertyOp0
 70
     1
102
RTVSPropertyOp1
 70
     1
102
RTVSPropertyOp2
 70
     1
102
RTVSPropertyOp3
 70
     1
102
RTVSPropertyOp4
 70
     1
102
RTVSPropertyOp5
 70
     1
102
RTVSPropertyOp6
 70
     1
102
RTVSPropertyOp7
 70
     1
102
RTVSPropertyOp8
 70
     1
102
RTVSPropertyOp9
 70
     1
102
RTVSPropertyOp10
 70
     1
102
RTVSPropertyOp11
 70
     1
102
RTVSPropertyOp12
 70
     1
102
RTVSPropertyOp13
 70
     1
102
RTVSPropertyOp14
 70
     1
102
RTVSPropertyOp15
 70
     1
102
RTVSPropertyOp16
 70
     1
102
RTVSPropertyOp17
 70
     1
102
RTVSPropertyOp18
 70
     1
102
RTVSPropertyOp19
 70
     1
102
RTVSPropertyOp20
 70
     1
102
RTVSPropertyOp21
 70
     1
102
RTVSPropertyOp22
 70
     1
102
RTVSPropertyOp23
 70
     1
102
RTVSPropertyOp24
 70
     1
102
RTVSPropertyOp25
 70
     1
102
RTVSPropertyOp26
 70
     1
102
RTVSPropertyOp27
 70
     1
102
RTVSPropertyOp28
 70
     1
102
RTVSPropertyOp29
 70
     1
102
RTVSPropertyOp30
 70
     1
102
RTVSPropertyOp31
 70
     1
102
RTVSPropertyOp32
 70
     1
  0
XRECORD
  5
253
102
{ACAD_REACTORS
330
252
102
}
330
252
100
AcDbXrecord
280
     1
102
RTVSPropertyOp0
 70
     1
102
RTVSPropertyOp1
 70
     1
102
RTVSPropertyOp2
 70
     1
102
RTVSPropertyOp3
 70
     1
102
RTVSPropertyOp4
 70
     1
102
RTVSPropertyOp5
 70
     1
102
RTVSPropertyOp6
 70
     1
102
RTVSPropertyOp7
 70
     1
102
RTVSPropertyOp8
 70
     1
102
RTVSPropertyOp9
 70
     1
102
RTVSPropertyOp10
 70
     1
102
RTVSPropertyOp11
 70
     1
102
RTVSPropertyOp12
 70
     1
102
RTVSPropertyOp13
 70
     1
102
RTVSPropertyOp14
 70
     1
102
RTVSPropertyOp15
 70
     1
102
RTVSPropertyOp16
 70
     1
102
RTVSPropertyOp17
 70
     1
102
RTVSPropertyOp18
 70
     1
102
RTVSPropertyOp19
 70
     1
102
RTVSPropertyOp20
 70
     1
102
RTVSPropertyOp21
 70
     1
102
RTVSPropertyOp22
 70
     1
102
RTVSPropertyOp23
 70
     1
102
RTVSPropertyOp24
 70
     1
102
RTVSPropertyOp25
 70
     1
102
RTVSPropertyOp26
 70
     1
102
RTVSPropertyOp27
 70
     1
102
RTVSPropertyOp28
 70
     1
102
RTVSPropertyOp29
 70
     1
102
RTVSPropertyOp30
 70
     1
102
RTVSPropertyOp31
 70
     1
102
RTVSPropertyOp32
 70
     1
  0
XRECORD
  5
25B
102
{ACAD_REACTORS
330
25A
102
}
330
25A
100
AcDbXrecord
280
     1
102
RTVSPropertyOp0
 70
     1
102
RTVSPropertyOp1
 70
     1
102
RTVSPropertyOp2
 70
     1
102
RTVSPropertyOp3
 70
     1
102
RTVSPropertyOp4
 70
     1
102
RTVSPropertyOp5
 70
     1
102
RTVSPropertyOp6
 70
     1
102
RTVSPropertyOp7
 70
     1
102
RTVSPropertyOp8
 70
     1
102
RTVSPropertyOp9
 70
     1
102
RTVSPropertyOp10
 70
     1
102
RTVSPropertyOp11
 70
     1
102
RTVSPropertyOp12
 70
     1
102
RTVSPropertyOp13
 70
     1
102
RTVSPropertyOp14
 70
     1
102
RTVSPropertyOp15
 70
     1
102
RTVSPropertyOp16
 70
     1
102
RTVSPropertyOp17
 70
     1
102
RTVSPropertyOp18
 70
     1
102
RTVSPropertyOp19
 70
     1
102
RTVSPropertyOp20
 70
     1
102
RTVSPropertyOp21
 70
     1
102
RTVSPropertyOp22
 70
     1
102
RTVSPropertyOp23
 70
     1
102
RTVSPropertyOp24
 70
     1
102
RTVSPropertyOp25
 70
     1
102
RTVSPropertyOp26
 70
     1
102
RTVSPropertyOp27
 70
     1
102
RTVSPropertyOp28
 70
     1
102
RTVSPropertyOp29
 70
     1
102
RTVSPropertyOp30
 70
     1
102
RTVSPropertyOp31
 70
     1
102
RTVSPropertyOp32
 70
     1
  0
XRECORD
  5
23F
102
{ACAD_REACTORS
330
23E
102
}
330
23E
100
AcDbXrecord
280
     1
102
RTVSPropertyOp0
 70
     1
102
RTVSPropertyOp1
 70
     1
102
RTVSPropertyOp2
 70
     1
102
RTVSPropertyOp3
 70
     1
102
RTVSPropertyOp4
 70
     1
102
RTVSPropertyOp5
 70
     1
102
RTVSPropertyOp6
 70
     1
102
RTVSPropertyOp7
 70
     1
102
RTVSPropertyOp8
 70
     1
102
RTVSPropertyOp9
 70
     1
102
RTVSPropertyOp10
 70
     1
102
RTVSPropertyOp11
 70
     1
102
RTVSPropertyOp12
 70
     1
102
RTVSPropertyOp13
 70
     1
102
RTVSPropertyOp14
 70
     1
102
RTVSPropertyOp15
 70
     1
102
RTVSPropertyOp16
 70
     1
102
RTVSPropertyOp17
 70
     1
102
RTVSPropertyOp18
 70
     1
102
RTVSPropertyOp19
 70
     1
102
RTVSPropertyOp20
 70
     1
102
RTVSPropertyOp21
 70
     1
102
RTVSPropertyOp22
 70
     1
102
RTVSPropertyOp23
 70
     1
102
RTVSPropertyOp24
 70
     1
102
RTVSPropertyOp25
 70
     1
102
RTVSPropertyOp26
 70
     1
102
RTVSPropertyOp27
 70
     1
102
RTVSPropertyOp28
 70
     1
102
RTVSPropertyOp29
 70
     1
102
RTVSPropertyOp30
 70
     1
102
RTVSPropertyOp31
 70
     1
102
RTVSPropertyOp32
 70
     1
  0
XRECORD
  5
241
102
{ACAD_REACTORS
330
240
102
}
330
240
100
AcDbXrecord
280
     1
102
RTVSPropertyOp0
 70
     1
102
RTVSPropertyOp1
 70
     1
102
RTVSPropertyOp2
 70
     1
102
RTVSPropertyOp3
 70
     1
102
RTVSPropertyOp4
 70
     1
102
RTVSPropertyOp5
 70
     1
102
RTVSPropertyOp6
 70
     1
102
RTVSPropertyOp7
 70
     1
102
RTVSPropertyOp8
 70
     1
102
RTVSPropertyOp9
 70
     1
102
RTVSPropertyOp10
 70
     1
102
RTVSPropertyOp11
 70
     1
102
RTVSPropertyOp12
 70
     1
102
RTVSPropertyOp13
 70
     1
102
RTVSPropertyOp14
 70
     1
102
RTVSPropertyOp15
 70
     1
102
RTVSPropertyOp16
 70
     1
102
RTVSPropertyOp17
 70
     1
102
RTVSPropertyOp18
 70
     1
102
RTVSPropertyOp19
 70
     1
102
RTVSPropertyOp20
 70
     1
102
RTVSPropertyOp21
 70
     1
102
RTVSPropertyOp22
 70
     1
102
RTVSPropertyOp23
 70
     1
102
RTVSPropertyOp24
 70
     1
102
RTVSPropertyOp25
 70
     1
102
RTVSPropertyOp26
 70
     1
102
RTVSPropertyOp27
 70
     1
102
RTVSPropertyOp28
 70
     1
102
RTVSPropertyOp29
 70
     1
102
RTVSPropertyOp30
 70
     1
102
RTVSPropertyOp31
 70
     1
102
RTVSPropertyOp32
 70
     1
  0
XRECORD
  5
243
102
{ACAD_REACTORS
330
242
102
}
330
242
100
AcDbXrecord
280
     1
102
RTVSPropertyOp0
 70
     1
102
RTVSPropertyOp1
 70
     1
102
RTVSPropertyOp2
 70
     1
102
RTVSPropertyOp3
 70
     1
102
RTVSPropertyOp4
 70
     1
102
RTVSPropertyOp5
 70
     1
102
RTVSPropertyOp6
 70
     1
102
RTVSPropertyOp7
 70
     1
102
RTVSPropertyOp8
 70
     1
102
RTVSPropertyOp9
 70
     1
102
RTVSPropertyOp10
 70
     1
102
RTVSPropertyOp11
 70
     1
102
RTVSPropertyOp12
 70
     1
102
RTVSPropertyOp13
 70
     1
102
RTVSPropertyOp14
 70
     1
102
RTVSPropertyOp15
 70
     1
102
RTVSPropertyOp16
 70
     1
102
RTVSPropertyOp17
 70
     1
102
RTVSPropertyOp18
 70
     1
102
RTVSPropertyOp19
 70
     1
102
RTVSPropertyOp20
 70
     1
102
RTVSPropertyOp21
 70
     1
102
RTVSPropertyOp22
 70
     1
102
RTVSPropertyOp23
 70
     1
102
RTVSPropertyOp24
 70
     1
102
RTVSPropertyOp25
 70
     1
102
RTVSPropertyOp26
 70
     1
102
RTVSPropertyOp27
 70
     1
102
RTVSPropertyOp28
 70
     1
102
RTVSPropertyOp29
 70
     1
102
RTVSPropertyOp30
 70
     1
102
RTVSPropertyOp31
 70
     1
102
RTVSPropertyOp32
 70
     1
  0
XRECORD
  5
245
102
{ACAD_REACTORS
330
244
102
}
330
244
100
AcDbXrecord
280
     1
102
RTVSPropertyOp0
 70
     1
102
RTVSPropertyOp1
 70
     1
102
RTVSPropertyOp2
 70
     1
102
RTVSPropertyOp3
 70
     1
102
RTVSPropertyOp4
 70
     1
102
RTVSPropertyOp5
 70
     1
102
RTVSPropertyOp6
 70
     1
102
RTVSPropertyOp7
 70
     1
102
RTVSPropertyOp8
 70
     1
102
RTVSPropertyOp9
 70
     1
102
RTVSPropertyOp10
 70
     1
102
RTVSPropertyOp11
 70
     1
102
RTVSPropertyOp12
 70
     1
102
RTVSPropertyOp13
 70
     1
102
RTVSPropertyOp14
 70
     1
102
RTVSPropertyOp15
 70
     1
102
RTVSPropertyOp16
 70
     1
102
RTVSPropertyOp17
 70
     1
102
RTVSPropertyOp18
 70
     1
102
RTVSPropertyOp19
 70
     1
102
RTVSPropertyOp20
 70
     1
102
RTVSPropertyOp21
 70
     1
102
RTVSPropertyOp22
 70
     1
102
RTVSPropertyOp23
 70
     1
102
RTVSPropertyOp24
 70
     1
102
RTVSPropertyOp25
 70
     1
102
RTVSPropertyOp26
 70
     1
102
RTVSPropertyOp27
 70
     1
102
RTVSPropertyOp28
 70
     1
102
RTVSPropertyOp29
 70
     1
102
RTVSPropertyOp30
 70
     1
102
RTVSPropertyOp31
 70
     1
102
RTVSPropertyOp32
 70
     1
  0
XRECORD
  5
259
102
{ACAD_REACTORS
330
258
102
}
330
258
100
AcDbXrecord
280
     1
102
RTVSPropertyOp0
 70
     1
102
RTVSPropertyOp1
 70
     1
102
RTVSPropertyOp2
 70
     1
102
RTVSPropertyOp3
 70
     1
102
RTVSPropertyOp4
 70
     1
102
RTVSPropertyOp5
 70
     1
102
RTVSPropertyOp6
 70
     1
102
RTVSPropertyOp7
 70
     1
102
RTVSPropertyOp8
 70
     1
102
RTVSPropertyOp9
 70
     1
102
RTVSPropertyOp10
 70
     1
102
RTVSPropertyOp11
 70
     1
102
RTVSPropertyOp12
 70
     1
102
RTVSPropertyOp13
 70
     1
102
RTVSPropertyOp14
 70
     1
102
RTVSPropertyOp15
 70
     1
102
RTVSPropertyOp16
 70
     1
102
RTVSPropertyOp17
 70
     1
102
RTVSPropertyOp18
 70
     1
102
RTVSPropertyOp19
 70
     1
102
RTVSPropertyOp20
 70
     1
102
RTVSPropertyOp21
 70
     1
102
RTVSPropertyOp22
 70
     1
102
RTVSPropertyOp23
 70
     1
102
RTVSPropertyOp24
 70
     1
102
RTVSPropertyOp25
 70
     1
102
RTVSPropertyOp26
 70
     1
102
RTVSPropertyOp27
 70
     1
102
RTVSPropertyOp28
 70
     1
102
RTVSPropertyOp29
 70
     1
102
RTVSPropertyOp30
 70
     1
102
RTVSPropertyOp31
 70
     1
102
RTVSPropertyOp32
 70
     1
  0
XRECORD
  5
24F
102
{ACAD_REACTORS
330
24E
102
}
330
24E
100
AcDbXrecord
280
     1
102
RTVSPropertyOp0
 70
     1
102
RTVSPropertyOp1
 70
     1
102
RTVSPropertyOp2
 70
     1
102
RTVSPropertyOp3
 70
     1
102
RTVSPropertyOp4
 70
     1
102
RTVSPropertyOp5
 70
     1
102
RTVSPropertyOp6
 70
     1
102
RTVSPropertyOp7
 70
     1
102
RTVSPropertyOp8
 70
     1
102
RTVSPropertyOp9
 70
     1
102
RTVSPropertyOp10
 70
     1
102
RTVSPropertyOp11
 70
     1
102
RTVSPropertyOp12
 70
     1
102
RTVSPropertyOp13
 70
     1
102
RTVSPropertyOp14
 70
     1
102
RTVSPropertyOp15
 70
     1
102
RTVSPropertyOp16
 70
     1
102
RTVSPropertyOp17
 70
     1
102
RTVSPropertyOp18
 70
     1
102
RTVSPropertyOp19
 70
     1
102
RTVSPropertyOp20
 70
     1
102
RTVSPropertyOp21
 70
     1
102
RTVSPropertyOp22
 70
     1
102
RTVSPropertyOp23
 70
     1
102
RTVSPropertyOp24
 70
     1
102
RTVSPropertyOp25
 70
     1
102
RTVSPropertyOp26
 70
     1
102
RTVSPropertyOp27
 70
     1
102
RTVSPropertyOp28
 70
     1
102
RTVSPropertyOp29
 70
     1
102
RTVSPropertyOp30
 70
     1
102
RTVSPropertyOp31
 70
     1
102
RTVSPropertyOp32
 70
     1
  0
XRECORD
  5
257
102
{ACAD_REACTORS
330
256
102
}
330
256
100
AcDbXrecord
280
     1
102
RTVSPropertyOp0
 70
     1
102
RTVSPropertyOp1
 70
     1
102
RTVSPropertyOp2
 70
     1
102
RTVSPropertyOp3
 70
     1
102
RTVSPropertyOp4
 70
     1
102
RTVSPropertyOp5
 70
     1
102
RTVSPropertyOp6
 70
     1
102
RTVSPropertyOp7
 70
     1
102
RTVSPropertyOp8
 70
     1
102
RTVSPropertyOp9
 70
     1
102
RTVSPropertyOp10
 70
     1
102
RTVSPropertyOp11
 70
     1
102
RTVSPropertyOp12
 70
     1
102
RTVSPropertyOp13
 70
     1
102
RTVSPropertyOp14
 70
     1
102
RTVSPropertyOp15
 70
     1
102
RTVSPropertyOp16
 70
     1
102
RTVSPropertyOp17
 70
     1
102
RTVSPropertyOp18
 70
     1
102
RTVSPropertyOp19
 70
     1
102
RTVSPropertyOp20
 70
     1
102
RTVSPropertyOp21
 70
     1
102
RTVSPropertyOp22
 70
     1
102
RTVSPropertyOp23
 70
     1
102
RTVSPropertyOp24
 70
     1
102
RTVSPropertyOp25
 70
     1
102
RTVSPropertyOp26
 70
     1
102
RTVSPropertyOp27
 70
     1
102
RTVSPropertyOp28
 70
     1
102
RTVSPropertyOp29
 70
     1
102
RTVSPropertyOp30
 70
     1
102
RTVSPropertyOp31
 70
     1
102
RTVSPropertyOp32
 70
     1
  0
ENDSEC
  0
EOF
